XWA 2019 05 19 Excelsior / 19th MAY 2019

XWA 2019 05 19 Excelsior 720p WEB h264-iNDYHEEL

XWA 2019 05 19 Excelsior 720p WEB h264-iNDYHEEL

XWA.2019.05.19.Excelsior.720p.WEB.h264-iNDYHEEL

MKV Format.



Not all heroes wear capes, and not all villains are transparent.

War!
Dan Maff, Shawn Donavan, JD Drake & Austin Theory battle Danny Limelight, Alexander Hammerstone, Kellan Thomas & Anthony Henry

Christian Casanova goes 1 on 1 with Ace Austin

Tag Team Championship in the line as Bear Country defend against Lights, Camera, Marketing!

XWA Firebrand Championship on the line as Trigga the OG defends against Mike Verna

José Perez returns to the ring to face King Leon VI!

And more!

General
Complete name : XWA.2019.05.19.Excelsior.720p.WEB.h264-iNDYHEEL.mkv
Format : Matroska
Format version : Version 4
File size : 2.84 GiB
Duration : 3 h 1 min
Overall bit rate : 2 243 kb/s
Encoded date : UTC 2019-05-20 21:50:19
Writing application : mkvmerge v33.1.0 (‘Primrose’) 64-bit
Writing library : libebml v1.3.7 + libmatroska v1.5.0

Video
ID : 1
Format : AVC
Format/Info : Advanced Video Codec
Format profile : [email protected]
Format settings : CABAC / 4 Ref Frames
Format settings, CABAC : Yes
Format settings, Reference : 4 frames
Codec ID : V_MPEG4/ISO/AVC
Duration : 3 h 1 min
Bit rate : 2 113 kb/s
Width : 1 280 pixels
Height : 720 pixels
Display aspect ratio : 16:9
Frame rate mode : Variable
Frame rate : 29.970 (29970/1000) FPS
Color space : YUV
Chroma subsampling : 4:2:0
Bit depth : 8 bits
Scan type : Progressive
Bits/(Pixel*Frame) : 0.077
Stream size : 2.68 GiB (94%)
Default : Yes
Forced : No

Audio
ID : 2
Format : AAC LC
Format/Info : Advanced Audio Codec Low Complexity
Codec ID : A_AAC-2
Duration : 3 h 1 min
Bit rate : 127 kb/s
Channel(s) : 2 channels
Channel layout : L R
Sampling rate : 48.0 kHz
Frame rate : 46.875 FPS (1024 SPF)
Compression mode : Lossy
Delay relative to video : -102 ms
Stream size : 164 MiB (6%)
Default : Yes
Forced : No

https://1fichier.com/?09pz3thrcsvl61x8d2ej
https://anonfile.com/t869tes1n2
https://bayfiles.com/G38atds2n7
https://bitster.cz/file/b81ecc
http://dl.free.fr/cBQA9Idkj
https://file.bz/3287tfs0nb
https://filerio.in/46hwnfy3h14c
https://filescdn.net/g2xhlxq5eyk4
https://multiup.org/download/6ab02655e7be5b4b0a26de28e845537e
http://nitroflare.com/view/9E1619840775A56
https://openload.co/f/DA4A-MhuB_E
https://rg.to/file/e29990bafddb22fda523f5a774c11bef
https://turbobit.net/5x3lfn0fobr3.html
https://uploadgig.com/file/download/Cc113f310e58ff6a

Leave a Reply

Your email address will not be published. Required fields are marked *