WWFC.14.WEB.DL.HEVC.x265-WH

WWFC.14.WEB.DL.HEVC.x265-WH

General
Complete name : WWFC.14.WEB.DL.HEVC.x265-WH.mp4
Format : MPEG-4
Format profile : QuickTime
Codec ID : qt
File size : 2.22 GiB
Duration : 4h 36mn
Overall bit rate : 1 150 Kbps
Writing application : Lavf55.33.100

Video
ID : 1
Format : hev1
Codec ID : hev1
Duration : 4h 36mn
Bit rate mode : Variable
Bit rate : 1 016 Kbps
Width : 712 pixels
Height : 400 pixels
Display aspect ratio : 16:9
Frame rate mode : Constant
Frame rate : 25.000 fps
Bits/(Pixel*Frame) : 0.143
Stream size : 1.96 GiB (88%)
Language : English

Audio
ID : 2
Format : AAC
Format/Info : Advanced Audio Codec
Format profile : LC
Codec ID : 40
Duration : 4h 36mn
Bit rate mode : Constant
Bit rate : 128 Kbps
Channel(s) : 2 channels
Channel positions : Front: L R
Sampling rate : 44.1 KHz
Compression mode : Lossy
Stream size : 253 MiB (11%)
Language : English

ONE LINK DOWNLOAD

1fichier.com

https://shrt10.com/n2Wnrq

anonfile.com

https://shrt10.com/SnI7Pl

dl.free.fr

https://shrt10.com/4oUHbZ

filerio.in

https://shrt10.com/GqBOC

About PH.M.H

[Wrestling Best Uploader]

View all posts by PH.M.H

Leave a Reply

Your email address will not be published. Required fields are marked *