WWE This Week 2019 05 24 WEB h264-HEEL / 720p

WWE This Week 2019 05 24 WEB h264-HEEL / 720p

WWE This Week 2019 05 24 WEB h264-HEEL / 720p

WWE.This.Week.2019.05.24.WEB.h264-HEEL

General
Complete name : WWE.This.Week.2019.05.24.WEB.h264-HEEL.mp4
Format : MPEG-4
Format profile : Base Media
Codec ID : isom (isom/iso2/avc1/mp41)
File size : 364 MiB
Duration : 29 min 3 s
Overall bit rate mode : Variable
Overall bit rate : 1 753 kb/s
Writing application : Lavf58.26.101

Video
ID : 1
Format : AVC
Format/Info : Advanced Video Codec
Format profile : [email protected]
Format settings : CABAC / 3 Ref Frames
Format settings, CABAC : Yes
Format settings, Reference : 3 frames
Codec ID : avc1
Codec ID/Info : Advanced Video Coding
Duration : 29 min 3 s
Bit rate mode : Variable
Bit rate : 1 652 kb/s
Maximum bit rate : 2 125 kb/s
Width : 960 pixels
Height : 540 pixels
Display aspect ratio : 16:9
Frame rate mode : Constant
Frame rate : 29.970 (30000/1001) FPS
Color space : YUV
Chroma subsampling : 4:2:0
Bit depth : 8 bits
Scan type : Progressive
Bits/(Pixel*Frame) : 0.106
Stream size : 343 MiB (94%)
Codec configuration box : avcC

Audio
ID : 2
Format : AAC LC
Format/Info : Advanced Audio Codec Low Complexity
Codec ID : mp4a-40-2
Duration : 29 min 3 s
Bit rate mode : Variable
Bit rate : 93.5 kb/s
Maximum bit rate : 95.3 kb/s
Channel(s) : 2 channels
Channel layout : L R
Sampling rate : 48.0 kHz
Frame rate : 46.875 FPS (1024 SPF)
Compression mode : Lossy
Stream size : 19.4 MiB (5%)
Default : Yes
Alternate group : 1

Text
ID : 1-CC1
Format : EIA-608
Muxing mode : SCTE 128 / DTVCC Transport
Muxing mode, more info : Muxed in Video #1
Duration : 29 min 3 s
Bit rate mode : Constant
Stream size : 0.00 Byte (0%)
Encoded stream size : 0.00 Byte (0%)
CaptionServiceName : CC1

https://1fichier.com/?pzbvjm082yjg927ujyf8
https://anonfile.com/19q0Kasane
https://bayfiles.com/BfqbK2s9ne
https://bitster.cz/file/5026fa
https://ddl.to/4zv2dkkyftej
http://dl.free.fr/wu9KbscE3
https://file.bz/F4q9Kfs3n5
http://www.filefactory.com/file/3tdbbet5i8jb
https://filerio.in/j6ma3gthtfky
https://filescdn.net/337rk3dmf03y
https://multiup.org/download/e8e85d8d6f9593f7631cbba3f9ff24f9
http://www.netshare.cz/c1be92d99fff5464
http://nitroflare.com/view/B3AFF4CCDD4CB2F
https://openload.co/f/BZoYFrUNk0o
https://turbobit.net/tn9xgu0rlhiv.html
https://uploadgig.com/file/download/5a37E26c343F44Fa

WWE.This.Week.2019.05.24.720p.WEB.h264-HEEL

General
Complete name : WWE.This.Week.2019.05.24.720p.WEB.h264-HEEL.mp4
Format : MPEG-4
Format profile : Base Media
Codec ID : isom (isom/iso2/avc1/mp41)
File size : 928 MiB
Duration : 29 min 3 s
Overall bit rate mode : Variable
Overall bit rate : 4 464 kb/s
Writing application : Lavf58.26.101

Video
ID : 1
Format : AVC
Format/Info : Advanced Video Codec
Format profile : [email protected]
Format settings : CABAC / 3 Ref Frames
Format settings, CABAC : Yes
Format settings, Reference : 3 frames
Codec ID : avc1
Codec ID/Info : Advanced Video Coding
Duration : 29 min 3 s
Bit rate mode : Variable
Bit rate : 4 362 kb/s
Maximum bit rate : 5 500 kb/s
Width : 1 280 pixels
Height : 720 pixels
Display aspect ratio : 16:9
Frame rate mode : Constant
Frame rate : 29.970 (30000/1001) FPS
Color space : YUV
Chroma subsampling : 4:2:0
Bit depth : 8 bits
Scan type : Progressive
Bits/(Pixel*Frame) : 0.158
Stream size : 907 MiB (98%)
Codec configuration box : avcC

Audio
ID : 2
Format : AAC LC
Format/Info : Advanced Audio Codec Low Complexity
Codec ID : mp4a-40-2
Duration : 29 min 3 s
Bit rate mode : Variable
Bit rate : 93.5 kb/s
Maximum bit rate : 95.3 kb/s
Channel(s) : 2 channels
Channel layout : L R
Sampling rate : 48.0 kHz
Frame rate : 46.875 FPS (1024 SPF)
Compression mode : Lossy
Stream size : 19.4 MiB (2%)
Default : Yes
Alternate group : 1

Text
ID : 1-CC1
Format : EIA-608
Muxing mode : SCTE 128 / DTVCC Transport
Muxing mode, more info : Muxed in Video #1
Duration : 29 min 3 s
Bit rate mode : Constant
Stream size : 0.00 Byte (0%)
Encoded stream size : 0.00 Byte (0%)
CaptionServiceName : CC1

https://1fichier.com/?t5i9glne70usvojnmhhd
https://anonfile.com/vdq4Kasdn4
https://bayfiles.com/D2q0K1s9nb
https://bitster.cz/file/29ce2f
https://ddl.to/vueh7jdarwur
http://dl.free.fr/s8soPCsHx
https://file.bz/KeqdKbs3nd
https://filerio.in/t0i7e5r39vaf
https://filescdn.net/39hmgalxogb4
https://multiup.org/download/552f72f47d2a345a73e70c73f6f585e9
http://www.netshare.cz/793b303461388b5f
http://nitroflare.com/view/2508237A8062D2F
https://openload.co/f/mtminJsljcU
https://turbobit.net/r0xzydj6rn6k.html
https://uploadgig.com/file/download/a8C36A329c555dcd

Leave a Reply

Your email address will not be published. Required fields are marked *