WWE The Bump 2020 06 03 1080p -HEEL

WWE The Bump 2020 06 03 1080p -HEEL

WWE The Bump 2020 06 03

WWE The Bump 2020 06 03 1080p WEB h264-HEEL

General
Complete name : 1080p.WEB.h264-HEEL.mp4
Format : MPEG-4
Format profile : Base Media
Codec ID : isom (isom/iso2/avc1/mp41)
File size : 3.31 GiB
Duration : 1 h 32 min
Overall bit rate mode : Constant

Video
ID : 1
Format : AVC
Codec ID : avc1
Duration : 1 h 32 min
Bit rate mode : Constant
Bit rate : 5 000 kb/s
Width : 1 920 pixels
Height : 1 080 pixels
Display aspect ratio : 16:9
Frame rate mode : Variable
Frame rate : 30.000 FPS
Minimum frame rate : 29.412 FPS
Maximum frame rate : 30.303 FPS
Color space : YUV / WWE The Bump
Chroma subsampling : 4:2:0
Bit depth : 8 bits
Scan type : Progressive
Bits/(Pixel*Frame) : 0.080
Stream size : 3.22 GiB (97%)

Audio
ID : WWE The Bump
Format : AAC LC
Codec ID : mp4a-40-2
Duration : 1 h 32 min
Bit rate mode : Constant
Bit rate : 129 kb/s
Channel(s) : 2 channels
Channel layout : L R
Sampling rate : 44.1 kHz
Frame rate : 43.066 FPS (1024 SPF)
Compression mode : Lossy
Stream size : 84.9 MiB (3%)
Default : Yes
Alternate group : WWE The Bump

File iNFO
Released: 2020.06.03
Source: WEB
Resolution: 1920 x 1080 @ 30 FPS
Video: H.264 @ 5000 kbps
Audio: AAC @ 129 kbps
Size: 3.31 GB
Runtime: 1h 32mn

Watch online

download links

RapidGator | NitroFlare | uploadgig

link For WH Vip Users @ wrestling-home.vip
Subscribe At our Vip Service @ wrestling-home.vip
Uploaded by wrestling-home.com

Leave a Reply

Your email address will not be published. Required fields are marked *