WWE Table For 3 S05E03 Restaurant Riott 720p WEB h264-HEEL

WWE Table For 3 S05E03 Restaurant Riott 720p WEB h264-HEEL

WWE Table For 3 S05E03 Restaurant Riott 720p WEB h264-HEEL

General
Complete name : WWE.Table.For.3.S05E03.Restaurant.Riott.720p.WEB.h264-HEEL.mp4
Format : MPEG-4
Format profile : Base Media
Codec ID : isom (isom/iso2/avc1/mp41)
File size : 801 MiB
Duration : 24 min 52 s
Overall bit rate mode : Variable
Overall bit rate : 4 505 kb/s
Writing application : Lavf58.27.103

Video
ID : 1
Format : AVC
Format/Info : Advanced Video Codec
Format profile : [email protected]
Format settings : CABAC / 3 Ref Frames
Format settings, CABAC : Yes
Format settings, Reference : 3 frames
Codec ID : avc1
Codec ID/Info : Advanced Video Coding
Duration : 24 min 52 s
Bit rate mode : Variable
Bit rate : 4 403 kb/s
Maximum bit rate : 5 500 kb/s
Width : 1 280 pixels
Height : 720 pixels
Display aspect ratio : 16:9
Frame rate mode : Constant
Frame rate : 29.970 (30000/1001) FPS
Color space : YUV
Chroma subsampling : 4:2:0
Bit depth : 8 bits
Scan type : Progressive
Bits/(Pixel*Frame) : 0.159
Stream size : 783 MiB (98%)
Codec configuration box : avcC

Audio
ID : 2
Format : AAC LC
Format/Info : Advanced Audio Codec Low Complexity
Codec ID : mp4a-40-2
Duration : 24 min 52 s
Bit rate mode : Constant
Bit rate : 93.5 kb/s
Channel(s) : 2 channels
Channel layout : L R
Sampling rate : 48.0 kHz
Frame rate : 46.875 FPS (1024 SPF)
Compression mode : Lossy
Stream size : 16.6 MiB (2%)
Default : Yes
Alternate group : 1

Text
ID : 1-CC1
Format : EIA-608
Muxing mode : SCTE 128 / DTVCC Transport
Muxing mode, more info : Muxed in Video #1
Duration : 24 min 52 s
Bit rate mode : Constant
Stream size : 0.00 Byte (0%)
Encoded stream size : 0.00 Byte (0%)
CaptionServiceName : CC1

ROH Wrestling Ep 403 7th June 2019 1080p WEBRip h264-TJ

https://openload.co/f/sK2SLsRPJm0

https://1fichier.com/?tj26mt1mrm9mijnzz44e
https://anonfile.com/c3lcM6u5n5
https://bayfiles.com/I4l7M9u1n2
https://bitster.cz/file/b6eaec
https://ddl.to/g1t56kxrcj7u
http://dl.free.fr/qBJpN5I9p
https://file.bz/87l1M8u2nc
http://www.filefactory.com/file/1smgmeroljyx
https://filerio.in/ckhvw2fxdyao
https://multiup.org/download/e9b3805bac834ef4010d21c3ab83ceea
http://nitroflare.com/view/E808590BC2CC7AA
https://rg.to/file/d225f1d1603c13cb4bee2b3d8534155b
https://turbobit.net/dcfx19hkortb.html
https://uploadgig.com/file/download/74f615dae785c154

Leave a Reply

Your email address will not be published. Required fields are marked *