WWE Survivor Series PPV 2019 540p HDTV x264-WH

WWE Survivor Series PPV 2019 540p HDTV x264-WH

General
Complete name                    : 
WWE.Survivor.Series.PPV.2019.540p.HDTV.x264-WH.mp4
Format                           : MPEG-4
Format profile                   : Base Media
Codec ID                         : isom
File size                        : 4.56 GiB
Duration                         : 3h 26mn
Overall bit rate                 : 3 158 Kbps
Writing application              : Lavf56.15.102

Video
ID                               : 1
Format                           : AVC
Format/Info                      : Advanced Video Codec
Format profile                   : [email protected]
Format settings, CABAC           : No
Format settings, ReFrames        : 2 frames
Codec ID                         : avc1
Codec ID/Info                    : Advanced Video Coding
Duration                         : 3h 26mn
Bit rate mode                    : Variable
Bit rate                         : 3 000 Kbps
Width                            : 960 pixels
Height                           : 540 pixels
Display aspect ratio             : 16:9
Frame rate mode                  : Constant
Frame rate                       : 50.000 fps
Color space                      : YUV
Chroma subsampling               : 4:2:0
Bit depth                        : 8 bits
Scan type                        : Progressive
Bits/(Pixel*Frame)               : 0.116
Stream size                      : 4.32 GiB (95%)
Writing library                  : x264 core 142
Language                         : English


Audio
ID                               : 2
Format                           : AAC
Format/Info                      : Advanced Audio Codec
Format profile                   : LC
Codec ID                         : 40
Duration                         : 3h 26mn
Bit rate mode                    : Variable
Bit rate                         : 152 Kbps
Maximum bit rate                 : 192 Kbps
Channel(s)                       : 2 channels
Channel positions                : Front: L R
Sampling rate                    : 44.1 KHz
Compression mode                 : Lossy
Stream size                      : 224 MiB (5%)
Language                         : English

dropapk
https://dropapk.to/ewttduh0d4oy
fileup
https://fileup.cc/k4h4za9l3bek
nitroflare
http://nitroflare.com/view/D9C465EF7F68A96
rapidgator
https://rapidgator.net/file/7e77aa51bc363bcefc223761de4b1a8b
uploadgig
https://uploadgig.com/file/download/f5aE3A0d5d11f7af

dropapk
https://dropapk.to/0k56whkokvh5
https://dropapk.to/s71e9kdlz2cb
https://dropapk.to/4vnaji6ui24u
https://dropapk.to/g9tco4w4pp3m
https://dropapk.to/ww3zubba7s41

earn4files
https://earn4files.com/5eunn97u0ek7
https://earn4files.com/7ul6yq2o4rk7
https://earn4files.com/44imkouzrf2b
https://earn4files.com/9rw3xwaejl06
https://earn4files.com/9upbf99awhbt

fileup
https://fileup.cc/zyx1gzx2gore
https://fileup.cc/wnma3a9fiass
https://fileup.cc/chqhvkkxvosh
https://fileup.cc/4mqp5lgbpm7m
https://fileup.cc/67tq47z66u65

katfile
http://katfile.com/shq31nhiwdhh
http://katfile.com/k9qifmbcqwte
http://katfile.com/w40t7h56bwpw
http://katfile.com/ja6gsy1hazcr
http://katfile.com/1i5ddco2zzvk

nitroflare
http://nitroflare.com/view/0249C19A41C2298
http://nitroflare.com/view/76282A27AB662F7
http://nitroflare.com/view/0335A0A78C4DEC1
http://nitroflare.com/view/692A7A29D6FEEF8
http://nitroflare.com/view/BE76216BD69439F

Leave a Reply

Your email address will not be published. Required fields are marked *