WWE Super Showdown 2019 HDTV x264-WH

WWE Super Showdown 2019 HDTV x264-WH

WWE Super Showdown 2019 HDTV x264-WH

Name – WWE.Super.Showdown.2019.HDTV.x264-WH
Released – 06.07.2019
Aired – 06.07.2019
SOURCE – 720p.X
Size – 2.60 GB
Container – MP4
Resolution – 712 x 400 (16:9) @ 29.97 FPS
Video – x264 @ 1500 KBPS
Audio – AAC 128 KBPS
Length – 03:49:00
Encoder – WH Crew

General
Complete name : WWE.Super.Showdown.HDTV.x264-WH.mp4
Format : MPEG-4
Format profile : Base Media
Codec ID : isom (isom/iso2/avc1/mp41)
File size : 2.61 GiB
Duration : 3 h 49 min
Overall bit rate : 1 630 kb/s
Writing application : Lavf56.15.102

Video
ID : 1
Format : AVC
Format/Info : Advanced Video Codec
Format profile : [email protected]
Format settings : 2 Ref Frames
Format settings, CABAC : No
Format settings, Reference : 2 frames
Codec ID : avc1
Codec ID/Info : Advanced Video Coding
Duration : 3 h 49 min
Bit rate : 1 500 kb/s
Width : 712 pixels
Height : 400 pixels
Display aspect ratio : 16:9
Frame rate mode : Constant
Frame rate : 29.970 (29970/1000) FPS
Color space : YUV
Chroma subsampling : 4:2:0
Bit depth : 8 bits
Scan type : Progressive
Bits/(Pixel*Frame) : 0.176
Stream size : 2.39 GiB (92%)
Writing library : x264 core 142
Codec configuration box : avcC

Audio
ID : 2
Format : AAC LC
Format/Info : Advanced Audio Codec Low Complexity
Codec ID : mp4a-40-2
Duration : 3 h 49 min
Duration_LastFrame : -3 ms
Bit rate mode : Constant
Bit rate : 128 kb/s
Channel(s) : 2 channels
Channel layout : L R
Sampling rate : 44.1 kHz
Frame rate : 43.066 FPS (1024 SPF)
Compression mode : Lossy
Stream size : 210 MiB (8%)
Language : English
Default : Yes
Alternate group : 1

https://1fichier.com/?1p4ilcbdu1e6gcrposn1
https://anonfile.com/lbhbz5u9na
https://bayfiles.com/w7hbzcu3n0
https://bitster.cz/file/478143
http://dl.free.fr/jDHsf91Pe
https://file.bz/r6h5z7u6nf
https://filerio.in/ixtwmfngn38k
https://filescdn.net/kjyg6x4dia2m
https://multiup.org/download/9a7b04c697737bbe79a4385dc1d07e27/WWE.Super.Showdown.HDTV.x264-WH.mp4
http://nitroflare.com/view/F215FA80959D962
https://openload.co/f/oZyAOkbgSaI
https://rg.to/file/6533b614707fdd482c5766fbf2d36ce2
https://turbobit.net/tv7c0ivl44xt.html
https://uploadgig.com/file/download/658ed1ba31830925

Leave a Reply

Your email address will not be published.