WWE Super ShowDown 2019 720p WEB h264 [MKV / 4.8 GB]

WWE Super ShowDown 2019 06 07 720p WEB h264-TesTeZ
WWE Super ShowDown 2019 06 07 720p WEB h264-TesTeZ
WWE.Super.ShowDown.2019.06.07.720p.WEB.h264-TesTeZ
Audio.......: AAC 
Source......: web
Video.......: h264
Size4.79 GB

General

Complete name : WWE.Super.ShowDown.2019.06.07.720p.WEB.h264-TesTeZ
Format : Matroska
Format version : Version 4
File size : 4.79 GiB
Duration : 3 h 49 min
Overall bit rate : 2 995 kb/s
Encoded date : UTC 2019-06-07 23:12:46
Writing application : mkvmerge v34.0.0 (‘Sight and Seen’) 64-bit
Writing library : libebml v1.3.7 + libmatroska v1.5.0

Video
ID : 1
Format : AVC
Format/Info : Advanced Video Codec
Format profile : [email protected]
Format settings : CABAC / 4 Ref Frames
Format settings, CABAC : Yes
Format settings, Reference : 4 frames
Codec ID : V_MPEG4/ISO/AVC
Duration : 3 h 49 min
Bit rate mode : Constant
Bit rate : 2 872 kb/s
Width : 960 pixels
Height : 720 pixels
Display aspect ratio : 16:9
Frame rate mode : Constant
Frame rate : 29.970 (30000/1001) FPS
Color space : YUV
Chroma subsampling : 4:2:0
Bit depth : 8 bits
Scan type : Progressive
Bits/(Pixel*Frame) : 0.139
Stream size : 4.59 GiB (96%)
Language : English
Default : Yes
Forced : No

Audio
ID : 2
Format : AAC LC
Format/Info : Advanced Audio Codec Low Complexity
Codec ID : A_AAC-2
Duration : 3 h 49 min
Bit rate : 125 kb/s
Channel(s) : 2 channels
Channel layout : L R
Sampling rate : 48.0 kHz
Frame rate : 46.875 FPS (1024 SPF)
Compression mode : Lossy
Delay relative to video : 20 ms
Stream size : 206 MiB (4%)
Language : English
Default : Yes
Forced : No

filetransfer

https://filetransfer.io/data-package/QA9rwlsP

https://1fichier.com/?ms2iuz6xcc4r6b4zux5z
https://anonfile.com/R1Qay5udnc
http://dl.free.fr/jJufk0Agj
https://filerio.in/k8udbyess6w9
https://filescdn.net/4csi66nbm02e
https://multiup.org/download/8067874a69f04f140f0a17433aa11074
http://nitroflare.com/view/402F0226C0B7092
https://openload.co/f/vP4PKRLipw4
https://rg.to/file/8d5156c7812f0126c9fa516305a63b91
https://turbobit.net/pp6mpku5n08f.html
https://uploadgig.com/file/download/59900be4Ac851fB8

Leave a Reply

Your email address will not be published. Required fields are marked *