WWE SmackDown Live 2019 09 10 [VIP USERs]

WWE SmackDown Live 2019 09 10 [VIP USERs]

WWE SmackDown Live 2019 09 10 HDTV x264-NWCHD / 720p

dOWNLOAD WWE SmackDown Live 2019 09 10 HDTV x264-NWCHD / 720p

WWE SmackDown Live 2019 09 10 HDTV x264-NWCHD / 720p

dOWNLOAD WWE SmackDown 9/10/19

WWE.SmackDown.Live.2019.09.10.HDTV.x264-NWCHD

Name – WWE.SmackDown.Live.2019.09.10.HDTV.x264-NWCHD
Released – 09.10.2019
Aired – 09.10.2019
Size – 1.00 GB
Source – USA HD
Container – MP4
Resolution – 704 x 400 (16:9) @ 29.970 FPS
Video – x264 @ 1400 KBPS
Audio – AAC @ 192 KBPS
Length – 01:29:31 MIN
download

https://4downfiles.org/nkliuwdmf558
https://fileup.cc/1ay3i0ve273m
http://nitroflare.com/view/7B6CF2EC8030FBE
https://rapidgator.net/file/26db85339b29affa2c176a5591daf0fb
https://upload.ac/0rwk73p79u37
https://uploadgig.com/file/download/72685D9E96459470

https://1fichier.com/?thpwe23nakhxor3m914y
https://4downfiles.org/nkliuwdmf558
https://dl.bdupload.in/v070yjnzkd60
http://dl.free.fr/jEMRJMwBs
https://multiup.org/download/1efb3a7a5b054822ae8b0affb1d17540
https://uptomega.com/ozzbkux59ug1
https://userscloud.com/6dud2h5h6gwp

WWE.SmackDown.Live.2019.09.10.720p.HDTV.x264-NWCHD

Name – WWE.SmackDown.Live.2019.09.10.720p.HDTV.x264-NWCHD
Released – 09.10.2019
Aired – 09.10.2019
Size – 2.94 GB
Source – USA HD
Container – MP4
Resolution – 1280 x 720 (16:9) @ 29.970 FPS
Video – x264 @ 4500 KBPS
Audio – AAC @ 192 KBPS
Length – 01:29:31 MIN

There will no longer be 1080p from me as I have to wake up very early now for work.
download

https://4downfiles.org/mbyaq457ayoj
https://fileup.cc/46nzn7hgcdyf
http://nitroflare.com/view/00735691C400DDA
https://rapidgator.net/file/cab41ee2aacd60a65acf1994526eccea
https://uploadgig.com/file/download/2Ad28036af9EaA19

https://1fichier.com/?jqx9u1vafuiperq4rwjb
http://dl.free.fr/gOcwcryFO
https://multiup.org/download/9340fed3c3840b2b9d125ddc5aedefb5
https://userscloud.com/k4thtzs3nkn3

WWE Smackdown Live 2019 09 10 1080p WEB x264-ADMIT

dOWNLOAD WWE Smackdown Live 2019 09 10 1080p

WWE Smackdown Live 2019 09 10 1080p WEB x264-ADMIT
  WWE.Smackdown.Live.2019.09.10.1080p.WEB.x264-ADMIT
 
   Date      : 2019-09-11   |    Duration  : 1h 22mn
   Size      : 2.37 GiB
   Audio     : English | AAC LC @ 75.5 Kbps 
   Video     : 1920x1080 | 29.970 fps | 4 000 Kbps 
download

4downfiles

https://4downfiles.org/h4vp6mwb7afp

fileup
https://fileup.cc/qxaylmv5jze3

nitroflare

http://nitroflare.com/view/A55C29E8EC93D81

uploadgig

https://uploadgig.com/file/download/974a6553E0946DC0

rapidgator
https://rapidgator.net/file/e05bdfdf5c9cf9ca6894ebb1c2b0e295

https://1fichier.com/?7y7ug7muu0yogh1xkygg
http://dl.free.fr/ko3cKLnPU
https://multiup.org/download/7d40e78d90fd8cc4ecdebe820f113c5a
https://userscloud.com/2q27jnt0jrce

WWE Smackdown Live 2019 09 10 REPACK 720p HDTV x264-ACES

dOWNLOAD WWE Smackdown Live 2019 09 10 REPACK 720p HDTV

WWE Smackdown Live 2019 09 10 REPACK 720p HDTV x264-ACES
WWE.Smackdown.Live.2019.09.10.REPACK.720p.HDTV.x264-ACES
20190910
REPACK Reason: our previous rls had audio out of sync. Sorry

General
Complete name : WWE.Smackdown.Live.2019.09.10.REPACK.720p.HDTV.x264-ACES
Format : Matroska
File size : 2.39 GiB
Duration : 1h 24mn
Overall bit rate : 4 050 Kbps
Encoded date : UTC 2019-09-11 04:43:17
Writing application : mkvmerge v37.0.0 (‘Leave It’) 64-bit
Writing library : libebml v1.3.9 + libmatroska v1.5.2

Video
ID : 1
Format : AVC
Format/Info : Advanced Video Codec
Format profile : [email protected]
Format settings, CABAC : Yes
Format settings, ReFrames : 5 frames
Codec ID : V_MPEG4/ISO/AVC
Duration : 1h 24mn
Bit rate : 3 650 Kbps
Width : 1 280 pixels
Height : 720 pixels
Display aspect ratio : 16:9
Frame rate : 50.000 fps
Color space : YUV
Chroma subsampling : 4:2:0
Bit depth : 8 bits
Scan type : Progressive
Bits/(Pixel*Frame) : 0.079
Stream size : 2.15 GiB (90%)

Audio
ID : 2
Format : MPEG Audio
Format version : Version 1
Format profile : Layer 2
Codec ID : A_MPEG/L2
Codec ID/Hint : MP2
Duration : 1h 24mn
Bit rate mode : Constant
Bit rate : 320 Kbps
Channel(s) : 2 channels
Sampling rate : 48.0 KHz
Compression mode : Lossy
Stream size : 193 MiB (8%)
Language : English

download

https://4downfiles.org/3z0m6n2qlk2i
https://fileup.cc/jtkbss1pur3y
http://nitroflare.com/view/3E76F0D367D7234
https://rapidgator.net/file/c23fd366a6176ffa40e8604b32c08923
https://upload.ac/ts0vdfzgj25d
https://uploadgig.com/file/download/0cF959a87a26d585#

https://1fichier.com/?92jr2pc2fj7emqox22xm
http://dl.free.fr/kOiHJhHtj
https://multiup.org/download/c58208fe4456633681fdb51c42ef68dd
https://userscloud.com/yzcq0h0xh3aj

WWE SmackDown Sep. 10, 2019

Preview:~ In the final stop before WWE Clash of Champions, The Undertaker returns to Madison Square Garden. What will happen when The Deadman rises again on SmackDown LIVE? Also on SmackDown LIVE, Chad Gable and Elias look to move one step closer to the throne in the King of the Ring semifinals.
Dates: September 10, 2019
Location: NEW YORK, NY

  • The Undertaker returns to SmackDown LIVE
  • Chad Gable looks to continue impressive King of the Ring run against Elias
  • Will Roman Reigns pay back Erick Rowan for last week’s surprise attack?
  • Kofi Kingston’s journey brings him back to Madison Square Garden

One Comment on “WWE SmackDown Live 2019 09 10 [VIP USERs]”

Leave a Reply

Your email address will not be published. Required fields are marked *