WWE Smackdown Live 2019 09 10 REPACK 720p HDTV x264-ACES

WWE Smackdown Live 2019 09 10 REPACK 720p HDTV x264-ACES

dOWNLOAD WWE Smackdown Live 2019 09 10 REPACK 720p HDTV

WWE Smackdown Live 2019 09 10 REPACK 720p HDTV x264-ACES
WWE.Smackdown.Live.2019.09.10.REPACK.720p.HDTV.x264-ACES
20190910
REPACK Reason: our previous rls had audio out of sync. Sorry

General
Complete name : WWE.Smackdown.Live.2019.09.10.REPACK.720p.HDTV.x264-ACES
Format : Matroska
File size : 2.39 GiB
Duration : 1h 24mn
Overall bit rate : 4 050 Kbps
Encoded date : UTC 2019-09-11 04:43:17
Writing application : mkvmerge v37.0.0 (‘Leave It’) 64-bit
Writing library : libebml v1.3.9 + libmatroska v1.5.2

Video
ID : 1
Format : AVC
Format/Info : Advanced Video Codec
Format profile : [email protected]
Format settings, CABAC : Yes
Format settings, ReFrames : 5 frames
Codec ID : V_MPEG4/ISO/AVC
Duration : 1h 24mn
Bit rate : 3 650 Kbps
Width : 1 280 pixels
Height : 720 pixels
Display aspect ratio : 16:9
Frame rate : 50.000 fps
Color space : YUV
Chroma subsampling : 4:2:0
Bit depth : 8 bits
Scan type : Progressive
Bits/(Pixel*Frame) : 0.079
Stream size : 2.15 GiB (90%)
Matrix coefficients : BT.709-5, BT.1361, IEC 61966-2-4 709, SMPTE RP177

Audio
ID : 2
Format : MPEG Audio
Format version : Version 1
Format profile : Layer 2
Codec ID : A_MPEG/L2
Codec ID/Hint : MP2
Duration : 1h 24mn
Bit rate mode : Constant
Bit rate : 320 Kbps
Channel(s) : 2 channels
Sampling rate : 48.0 KHz
Compression mode : Lossy
Stream size : 193 MiB (8%)
Language : English

download

https://4downfiles.org/3z0m6n2qlk2i
https://fileup.cc/jtkbss1pur3y
http://nitroflare.com/view/3E76F0D367D7234
https://rapidgator.net/file/c23fd366a6176ffa40e8604b32c08923
https://upload.ac/ts0vdfzgj25d
https://uploadgig.com/file/download/0cF959a87a26d585#

Leave a Reply

Your email address will not be published. Required fields are marked *