WWE Smackdown Live 2019 05 28 720p AVCHD-SC-SDH

WWE Smackdown Live 2019 05 28 720p AVCHD-SC-SDH
WWE Smackdown Live 2019 05 28 720p AVCHD-SC-SDH
WWE Smackdown Live 
Episode 1,032 
Season 21 Episode 22 
BOK Center 
Tulsa, Oklahoma 
May 28, 2019 



This is SDH release #3,155 for the wrestling fans from a wrestling fan.
 First aired and captured from HDMI in H264 AVCHD at 8,000 kbps from the 
16:9 widescreen 1280 x 720p resolution HD source on 05/28/2019 on the 
USA HD channel on Cox Digital HD Cable. Framerate is 29.970 with an 
average Video Bitrate of 4,500 kbps in a High Quality 3.01 GB 720p H264 
AVCHD MP4 release with 48khz 384 kbps AAC 2 channel stereo audio the 
show runtime is 1:25:13 



My releases are in MP4 format with AAC 2 channel stereo audio so that 
they are playable with VLC player as well as Media Player Classic, 
Windows Media Player, Sony Playstation 3, Playstation 4, Xbox 360, Xbox 
One, Samsung Galaxy S III, IV, V, VI, VII, S8, S9, S10 smartphones, 
iPhone, iPad, and any other devices capable of playing 720p HD MP4 video 
files. 

General
Complete name : WWE Smackdown Live 2019-05-28 720p AVCHD-SC-SDH.mp4
Format : MPEG-4
Format profile : Base Media
Codec ID : isom (isom/iso2/avc1/mp41)
File size : 3.02 GiB
Duration : 1 h 25 min
Overall bit rate mode : Variable
Overall bit rate : 5 067 kb/s
Writing application : Lavf54.63.104

Video
ID : 1
Format : AVC
Format/Info : Advanced Video Codec
Format profile : [email protected]
Format settings : CABAC / 2 Ref Frames
Format settings, CABAC : Yes
Format settings, Reference : 2 frames
Format settings, GOP : M=3, N=9
Codec ID : avc1
Codec ID/Info : Advanced Video Coding
Duration : 1 h 25 min
Bit rate mode : Variable
Bit rate : 4 678 kb/s
Maximum bit rate : 8 640 kb/s
Width : 1 280 pixels
Height : 720 pixels
Display aspect ratio : 16:9
Frame rate mode : Variable
Frame rate : 29.970 (30000/1001) FPS
Minimum frame rate : 29.970 FPS
Maximum frame rate : 30.000 FPS
Color space : YUV
Chroma subsampling : 4:2:0
Bit depth : 8 bits
Scan type : Progressive
Bits/(Pixel*Frame) : 0.169
Stream size : 2.78 GiB (92%)
Color range : Limited
Color primaries : BT.709
Transfer characteristics : BT.709
Matrix coefficients : BT.709
Codec configuration box : avcC

Audio
ID : 2
Format : AAC LC
Format/Info : Advanced Audio Codec Low Complexity
Codec ID : mp4a-40-2
Duration : 1 h 25 min
Duration_LastFrame : -21 ms
Bit rate mode : Variable
Bit rate : 384 kb/s
Channel(s) : 2 channels
Channel layout : L R
Sampling rate : 48.0 kHz
Frame rate : 46.875 FPS (1024 SPF)
Compression mode : Lossy
Stream size : 233 MiB (8%)
Language : English
Default : Yes
Alternate group : 1

https://1fichier.com/?dvzvbbk2jmd2a195b82f
https://anonfile.com/L7u2odt5na
https://bitster.cz/file/9582ad
http://dl.free.fr/ovxFZW6rq
http://www.filefactory.com/file/7hvdznmpgp8j
https://filerio.in/m7g6vihrz6mi
https://filescdn.net/yexs2x12h7y6
https://multiup.org/download/8a9a65f4ae3362646b667c34f06feb39
http://nitroflare.com/view/A426ADF405DA8BD

https://rg.to/file/3e28a3ee07108513244428e72be02c31
https://uploadgig.com/file/download/d4fb34cEd3Dc1278

https://bayfiles.com/K8v9oct6n7
https://file.bz/V1vbo3tbn7
https://openload.co/f/YUBGmOffmo0
https://turbobit.net/ubupei4a87db.html

Leave a Reply

Your email address will not be published. Required fields are marked *