WWE.Smackdown.Live.2019.03.26.HDTV.HEVC.x265-WH

WWE.Smackdown.Live.2019.03.26.HDTV.HEVC.x265-WH

General
Complete name : WWE.Smackdown.Live.2019.03.26.HDTV.HEVC.x265-WH.mp4
Format : MPEG-4
Format profile : QuickTime
Codec ID : qt
File size : 799 MiB
Duration : 1h 26mn
Overall bit rate : 1 290 Kbps
Writing application : Lavf55.33.100

Video
ID : 1
Format : hev1
Codec ID : hev1
Duration : 1h 26mn
Bit rate mode : Variable
Bit rate : 1 157 Kbps
Width : 712 pixels
Height : 400 pixels
Display aspect ratio : 16:9
Frame rate mode : Constant
Frame rate : 25.000 fps
Bits/(Pixel*Frame) : 0.162
Stream size : 717 MiB (90%)
Language : English

Audio
ID : 2
Format : AAC
Format/Info : Advanced Audio Codec
Format profile : LC
Codec ID : 40
Duration : 1h 26mn
Bit rate mode : Constant
Bit rate : 128 Kbps
Channel(s) : 2 channels
Channel positions : Front: L R
Sampling rate : 44.1 KHz
Compression mode : Lossy
Stream size : 79.3 MiB (10%)
Language : English

ONE LINK DOWNLOAD

ddl.to

https://shrt10.com/wzgl9z7k

dl.free.fr

https://shrt10.com/aiDQFOEw

filefactory.com

https://shrt10.com/HrzmiG

filescdn.net

https://shrt10.com/Gak5V3vZ

rapidgator.net

https://shrt10.com/DUGHKWs

uploadgig.com

https://shrt10.com/AToZA

uptobox.com

https://shrt10.com/0mvE

Leave a Reply

Your email address will not be published.