WWE.SmackDown.Live.2019.03.19.HDTV.HEVC.x265-WH

WWE.SmackDown.Live.2019.03.19.HDTV.HEVC.x265-WH

WWE.SmackDown.Live.2019.03.19.HDTV.HEVC.x265-WH

General
Complete name                    : WWE.SmackDown.Live.2019.03.19.HDTV.HEVC.x265-WH.mp4
Format                          : MPEG-4
Format profile                  : QuickTime
Codec ID                        : qt 
File size                        : 747 MiB
Duration                        : 1h 29mn
Overall bit rate                : 1 166 Kbps
Writing application              : Lavf55.33.100

Video
ID                              : 1
Format                          : hev1
Codec ID                        : hev1
Duration                        : 1h 29mn
Bit rate mode                    : Variable
Bit rate                        : 1 033 Kbps
Width                            : 712 pixels
Height                          : 400 pixels
Display aspect ratio            : 16:9
Frame rate mode                  : Constant
Frame rate                      : 25.000 fps
Bits/(Pixel*Frame)              : 0.145
Stream size                      : 661 MiB (89%)
Language                        : English

Audio
ID                              : 2
Format                          : AAC
Format/Info                      : Advanced Audio Codec
Format profile                  : LC
Codec ID                        : 40
Duration                        : 1h 29mn
Bit rate mode                    : Constant
Bit rate                        : 128 Kbps
Channel(s)                      : 2 channels
Channel positions                : Front: L R
Sampling rate                    : 44.1 KHz
Compression mode                : Lossy
Stream size                      : 82.0 MiB (11%)
Language                        : English

https://1fichier.com/?sq8s3e9ygj9znxtys6qv
https://anonfile.com/Hbp2T5S0m1
https://ddl.to/kms057o7azy1
http://dl.free.fr/w7VJQNvro
https://filerio.in/p64uj8ziy59u
http://filestore.to/?d=2QC9X6FHYC

3 Comments on “WWE.SmackDown.Live.2019.03.19.HDTV.HEVC.x265-WH”

  1. Hello.

    Any Chance to Upload “WWE.SmackDown.Live.2019.03.19.1080p.WEB.x264-MenInTights
    ” Please?

    thxxxxxxxxxxx

Leave a Reply

Your email address will not be published.