WWE SmackDown 2020 06 19 720p HDTV x264-WH

WWE SmackDown 2020 06 19 720p HDTV x264-WH [5 GB]

WWE SmackDown 2020 06 19 720p HDTV
File inFormation
WWE SmackDown 2020 06 19 720p HDTV x264-WH [5 GB]

RELEASE.DATE.: 06.20.2020              PROFiLE.....: High 4.1 CRF 25
RUNNiNG TiME.: 01h:28m:00s             AUDiO.......: AAC 
SiZE.........: 4.98 GB                 BiTRATE.....: 8000 kbit
LANGUAGE.....: English                 FORMAT......: x264 @ 50 FPS
Encode.......: WH Crew                 Container...: MP4
SOURCE...... : HDTV                    ViDEO.RES...: 16:9 @ 1280*720p
More detailed inFo

General
Complete name : 720p.HDTV.x264-WH.mp4
Format : MPEG-4
Format profile : Base Media
Codec ID : WWE SmackDown 2020 06 19
File size : 4.98 GiB
Duration : 1 h 28 min
Overall bit rate mode : Variable
Overall bit rate : 8 104 kb/s
Writing application : Lavf56.15.102

Video
ID : WWE SmackDown 2020 06 19
Format : AVC
Codec ID : avc1
Duration : 1 h 28 min
Bit rate : 8 000 kb/s
Width : 1 280 pixels
Height : 720 pixels
Display aspect ratio : 16:9
Frame rate mode : Constant
Frame rate : 50.000 FPS
Color space : YUV
Chroma subsampling : 4:2:0
Bit depth : 8 bits
Scan type : Progressive
Bits/(Pixel*Frame) : 0.174
Stream size : 4.88 GiB (98%)
Writing library : x264 core 142
Codec configuration : WWE SmackDown 2020 06 19

Audio
ID : WWE SmackDown 2020 06 19
Format : AAC LC
Codec ID : mp4a-40-2
Duration : 1 h 28 min
Bit rate mode : Variable
Bit rate : 152 kb/s
Maximum bit rate : 320 kb/s
Channel(s) : 2 channels
Channel layout : L R
Sampling rate : 44.1 kHz
Frame rate : 43.066 FPS (1024 SPF)
Compression mode : Lossy
Stream size : 95.5 MiB (2%)
Default : WWE SmackDown 2020 06 19
Alternate group : 1

download WWE SmackDown 2020 06 19 720p HDTV -WH

Single download links

Rapidgator // Nitroflare // Uploadgig // More links