WWE Smackdown 2020 05 29 1080i HDTV – WH

WWE Smackdown 2020 05 29 1080i HDTV – WH [12.7 GB]

General
Complete name : WWE.Smackdown.2020.05.29.Int.Sat.feed.HD.4.2.0-8Bits.1080i-WH.ts
Format : MPEG-TS
File size : 12.7 GiB
Duration : 1 h 58 min
Overall bit rate mode : Variable
Overall bit rate : 15.3 Mb/s

Video
Format : AVC
Codec ID : 27
Duration : 1 h 58 min
Bit rate : 13.9 Mb/s
Width : 1 920 pixels
Height : 1 080 pixels
Display aspect ratio : 16:9
Frame rate : 25.000 FPS
Color space : YUV
Chroma subsampling : 4:2:0
Bit depth : 8 bits

Audio #1
ID : 3060 (0xBF4)
Menu ID : 1 (0x1)
Format : MPEG Audio
Format version : Version 1
Format profile : Layer 2
Codec ID : 3
Duration : 1 h 58 min
Bit rate mode : Constant
Bit rate : 320 kb/s
Channel(s) : 2 channels
Sampling rate : 48.0 kHz
Frame rate : 41.667 FPS (1152 SPF)
Compression mode : Lossy
Stream size : 272 MiB (2%)
Language : English

Audio #2
ID : 4060 (0xFDC)
Menu ID : 1 (0x1)
Format : MPEG Audio
Format version : Version 1
Format profile : Layer 2
Codec ID : 3
Duration : 1 h 58 min
Bit rate mode : Constant
Bit rate : 320 kb/s
Channel(s) : 2 channels
Sampling rate : 48.0 kHz
Frame rate : 41.667 FPS (1152 SPF)
Compression mode : Lossy
Stream size : 272 MiB (2%)
Language : English

WWE Smackdown 2020 05 29 1080i
WWE Smackdown 2020 05 29 1080i
WWE Smackdown 2020 05 29 1080i
WWE Smackdown 2020 05 29 1080i

One Comment on “WWE Smackdown 2020 05 29 1080i HDTV – WH”

Leave a Reply

Your email address will not be published. Required fields are marked *