WWE Smackdown 2019 11 22 1080i HDTV -WH [12.5 GB]

WWE Smackdown 2019 11 22 1080i HDTV -WH

General
ID : 1 (0x1)
Complete name : WWE Smackdown 2019 11 22 1080i HDTV -WH.ts
Format : MPEG-TS
Format/Info : Advanced Video Codec
File size : 12.5 GiB
Duration : 1h25mn 18s
Overall bit rate : 19.2 Mbps

Video
ID : 4113 (0x1011)
Menu ID : 1 (0x1)
Format : AVC
Format/Info : Advanced Video Codec
Format profile : [email protected]
Format settings, CABAC : Yes
Format settings, ReFrames : 2 frames
Format settings, GOP : M=1, N=15
Codec ID : 27
Duration : 21mn 9s
Bit rate : 17.6 Mbps
Width : 1 920 pixels
Height : 1 080 pixels
Display aspect ratio : 16:9
Frame rate : 29.970 fps
Color space : YUV
Chroma subsampling : 4:2:0
Bit depth : 8 bits
Scan type : MBAFF
Bits/(Pixel*Frame) : 0.283
Stream size : 2.60 GiB (83%)

Audio
ID : 4352 (0x1100)
Menu ID : 1 (0x1)
Format : AC-3
Format/Info : Audio Coding 3
Mode extension : CM (complete main)
Codec ID : 129
Duration : 21mn 11s
Bit rate mode : Constant
Bit rate : 640 Kbps
Channel(s) : 6 channels
Channel positions : Front: L C R, Side: L R, LFE
Sampling rate : 48.0 KHz
Bit depth : 16 bits
Compression mode : Lossy
Stream size : 97.0 MiB (3%)
Language : English

nitroflare
https://nitroflare.com/view/9DC61283BB90151

fileup
https://fileup.cc/8wktqvrbwll6

rapidgator
https://rapidgator.net/file/64b5dd172edab7c6c61d1692b66daef1

katfile
http://katfile.com/e0x7csobcsfj/WWE.Smackdown.2019.11.22.1080i.HDTV-WH.part01.rar.html
http://katfile.com/46iczknnzs1f/WWE.Smackdown.2019.11.22.1080i.HDTV-WH.part02.rar.html
http://katfile.com/a6d5z7649lc5/WWE.Smackdown.2019.11.22.1080i.HDTV-WH.part03.rar.html
http://katfile.com/jylyf1eba83m/WWE.Smackdown.2019.11.22.1080i.HDTV-WH.part04.rar.html
http://katfile.com/qtob2a9n8db7/WWE.Smackdown.2019.11.22.1080i.HDTV-WH.part05.rar.html
http://katfile.com/6dcq993a1iwi/WWE.Smackdown.2019.11.22.1080i.HDTV-WH.part06.rar.html
http://katfile.com/0jxesmwpqqon/WWE.Smackdown.2019.11.22.1080i.HDTV-WH.part07.rar.html
http://katfile.com/9wfn9in8x86h/WWE.Smackdown.2019.11.22.1080i.HDTV-WH.part08.rar.html
http://katfile.com/5tfq3i0ynjl6/WWE.Smackdown.2019.11.22.1080i.HDTV-WH.part09.rar.html
http://katfile.com/lvq7bsgw31we/WWE.Smackdown.2019.11.22.1080i.HDTV-WH.part10.rar.html
http://katfile.com/pqdx1qeqfry7/WWE.Smackdown.2019.11.22.1080i.HDTV-WH.part11.rar.html
http://katfile.com/cyr1piywxafn/WWE.Smackdown.2019.11.22.1080i.HDTV-WH.part12.rar.html
http://katfile.com/4x9wmobcxt4a/WWE.Smackdown.2019.11.22.1080i.HDTV-WH.part13.rar.html

earn4files
https://earn4files.com/dqsr3bx300fl
https://earn4files.com/p9bo5gaew9vl
https://earn4files.com/0fcrgntt7ror
https://earn4files.com/h1u23y1jflri
https://earn4files.com/8kte0derwniy
https://earn4files.com/sqifua5ru7kg
https://earn4files.com/0thwibszgw9k
https://earn4files.com/ho49az38jbkc
https://earn4files.com/aw17rgp1eedm
https://earn4files.com/k012nzk2jxpm
https://earn4files.com/6476pwcbtxsj
https://earn4files.com/7hq21r9lhfnf
https://earn4files.com/tko2exfyuy3g

dropapk
https://dropapk.to/bh5bijh9ftt7
https://dropapk.to/dyq0xqlat5v6
https://dropapk.to/4efqd4lql2ee
https://dropapk.to/ykoqcrtyou16
https://dropapk.to/pp4biyqtn1bw
https://dropapk.to/p9m0k8znxw7w
https://dropapk.to/zkrf7gnwi6af
https://dropapk.to/tmhfpcsvk8jm
https://dropapk.to/a1ku077seltt
https://dropapk.to/386ceha9li3h
https://dropapk.to/uvi3x2rxxesb
https://dropapk.to/y1witna6lvhm
https://dropapk.to/xaogz1xhfk5d

nitroflare
http://nitroflare.com/view/50F0A22F1E5D2D2/WWE.Smackdown.2019.11.22.1080i.HDTV-WH.part01.rar
http://nitroflare.com/view/3D390CA03FA769F/WWE.Smackdown.2019.11.22.1080i.HDTV-WH.part02.rar
http://nitroflare.com/view/145731C87E3E496/WWE.Smackdown.2019.11.22.1080i.HDTV-WH.part03.rar
http://nitroflare.com/view/2585A4856854DEA/WWE.Smackdown.2019.11.22.1080i.HDTV-WH.part04.rar
http://nitroflare.com/view/8FB122E8489CDEA/WWE.Smackdown.2019.11.22.1080i.HDTV-WH.part05.rar
http://nitroflare.com/view/437778B9F645FB0/WWE.Smackdown.2019.11.22.1080i.HDTV-WH.part06.rar
http://nitroflare.com/view/78A42560ED06B32/WWE.Smackdown.2019.11.22.1080i.HDTV-WH.part07.rar
http://nitroflare.com/view/49F86604A803AD3/WWE.Smackdown.2019.11.22.1080i.HDTV-WH.part08.rar
http://nitroflare.com/view/AC308CFA5961AA1/WWE.Smackdown.2019.11.22.1080i.HDTV-WH.part09.rar
http://nitroflare.com/view/70951C7DEAA1523/WWE.Smackdown.2019.11.22.1080i.HDTV-WH.part10.rar
http://nitroflare.com/view/2087EB4E6B45C44/WWE.Smackdown.2019.11.22.1080i.HDTV-WH.part11.rar
http://nitroflare.com/view/0D50BA2541540B5/WWE.Smackdown.2019.11.22.1080i.HDTV-WH.part12.rar
http://nitroflare.com/view/C9E92F96128674F/WWE.Smackdown.2019.11.22.1080i.HDTV-WH.part13.rar

2 Comments on “WWE Smackdown 2019 11 22 1080i HDTV -WH [12.5 GB]”

Leave a Reply

Your email address will not be published.