WWE SmacKDown 2019 10 25 1080i HDTV-WH

WWE SmacKDown 2019 10 25 1080i HDTV-WH

dOWNLOAD WWE SmacKDown 2019 10 25 1080i HDTV-WH

WWE SmacKDown 2019 10 25 1080i HDTV-WH
DescriptionWH CREW PRESENTs
*****************************************

General
ID                          : 1 (0x1)
Complete name              : WWE.SmacKDown.2019.10.25.1080i.HDTV-WH.ts
Format                      : MPEG-TS
File size                  : 6.06 GiB
Duration                    : 2 h 0 min
Overall bit rate mode      : Variable
Overall bit rate            : 7 202 kb/s

Video
ID                          : 2060 (0x80C)
Menu ID                    : 1 (0x1)
Format                      : AVC
Format/Info                : Advanced Video Codec
Format profile              : [email protected]
Format settings            : CABAC / 4 Ref Frames
Format settings, CABAC      : Yes
Format settings, Reference  : 4 frames
Format settings, GOP        : M=1, N=15
Codec ID                    : 27
Duration                    : 2 h 0 min
Bit rate mode              : Variable
Bit rate                    : 6 458 kb/s
Maximum bit rate            : 7 100 kb/s
Width                      : 1 920 pixels
Height                      : 1 080 pixels
Display aspect ratio        : 16:9
Frame rate                  : 25.000 FPS
Color space                : YUV
Chroma subsampling          : 4:2:0
Bit depth                  : 8 bits
Scan type                  : MBAFF
Scan type, store method    : Interleaved fields
Scan order                  : Top Field First
Bits/(Pixel*Frame)          : 0.125
Stream size                : 5.43 GiB (90%)
Color range                : Limited
Color primaries            : BT.709
Transfer characteristics    : BT.709
Matrix coefficients        : BT.709

Audio #1
ID                          : 3060 (0xBF4)
Menu ID                    : 1 (0x1)
Format                      : MPEG Audio
Format version              : Version 1
Format profile              : Layer 2
Format settings            : Intensity Stereo + MS Stereo
Codec ID                    : 3
Duration                    : 2 h 0 min
Bit rate mode              : Constant
Bit rate                    : 192 kb/s
Channel(s)                  : 2 channels
Sampling rate              : 48.0 kHz
Frame rate                  : 41.667 FPS (1152 SPF)
Compression mode            : Lossy
Delay relative to video    : 9 ms
Stream size                : 165 MiB (3%)
Language                    : English

Audio #2
ID                          : 4060 (0xFDC)
Menu ID                    : 1 (0x1)
Format                      : MPEG Audio
Format version              : Version 1
Format profile              : Layer 2
Format settings            : Intensity Stereo + MS Stereo
Codec ID                    : 3
Duration                    : 2 h 0 min
Bit rate mode              : Constant
Bit rate                    : 192 kb/s
Channel(s)                  : 2 channels
Sampling rate              : 48.0 kHz
Frame rate                  : 41.667 FPS (1152 SPF)
Compression mode            : Lossy
Delay relative to video    : 9 ms
Stream size                : 165 MiB (3%)
Language                    : int

4downfile

https://4downfile.org/b8bpf0pndel7

earn4files
https://earn4files.com/9w6n2qshx3hg

fileup
https://fileup.cc/194mmv26iwv2

upload
https://upload.ac/okxd6e3j1jsb

nitroflare

http://nitroflare.com/view/6F83B4EE2C18B05

rapidgator
https://rapidgator.net/file/43ea223284be9ad8d7377dd343c01617

2 Comments on “WWE SmacKDown 2019 10 25 1080i HDTV-WH”

  1. 1080i HDTV-WH

    WWE SmacKDown 2019 10 25 1080i HDTV-WH

    Size : 6.05 GB

    ONE LINK DOWNLOAD

    ====== RAPIDGATOR ======
    https://rapidgator.net/file/7630583d955c5c388436b4cc16ab270b/WWE.SmacKDown.2019.10.25.1080i.HDTV-WH.ts

    ====== UploadGiG ======
    https://uploadgig.com/file/download/895f342e1cec71f1/WWE.SmacKDown.2019.10.25.1080i.HDTV-WH.ts

    ====== Nitroflare ======
    http://nitroflare.com/view/28D6088D8C7F9CD/WWE.SmacKDown.2019.10.25.1080i.HDTV-WH.ts

    1GB Parts Download – 6Parts Download – Links are Interchangeable

    ====== Dropapk ======
    https://dropapk.to/5uyieii31tba
    https://dropapk.to/v23ggibrfkq6
    https://dropapk.to/emmq04wwrvxe
    https://dropapk.to/cm2otbe6nr6n
    https://dropapk.to/zr85vm4ot3ga
    https://dropapk.to/l2i0bzufkr1n

    ====== Rockfile ======
    http://rockfile.co/0v9yeduztjca.html
    http://rockfile.co/lnf7myu55uod.html
    http://rockfile.co/3a7kpnh93pha.html
    http://rockfile.co/57xg1frxowhb.html
    http://rockfile.co/afl76519azat.html
    http://rockfile.co/5pbvngrxtpwv.html

    ====== 4Downfile ======
    https://4downfile.org/g5s9s7qbfr07
    https://4downfile.org/ocj0wnf1voim
    https://4downfile.org/soge8rlzhif4
    https://4downfile.org/kbkhjrun1xbs
    https://4downfile.org/k7t5ao33vdct
    https://4downfile.org/3apo8frakib9

    ====== Earn4Files ======
    https://earn4files.com/wufatfjt3s9n
    https://earn4files.com/1mcrg3qfxw3y
    https://earn4files.com/gpu16qtasprb
    https://earn4files.com/aix6u5wgvd25
    https://earn4files.com/k54an3r8k5uy
    https://earn4files.com/9dogwkhrj0ly

    ====== Nitroflare ======
    http://nitroflare.com/view/FAD09C33B1ABDFE/WWE.SmacKDown.2019.10.25.1080i.HDTV-WH.part1.rar
    http://nitroflare.com/view/B18068C2E559547/WWE.SmacKDown.2019.10.25.1080i.HDTV-WH.part2.rar
    http://nitroflare.com/view/6CD40F64F9CB825/WWE.SmacKDown.2019.10.25.1080i.HDTV-WH.part3.rar
    http://nitroflare.com/view/C14B0FDF929AAC8/WWE.SmacKDown.2019.10.25.1080i.HDTV-WH.part4.rar
    http://nitroflare.com/view/C411418BE80E7E5/WWE.SmacKDown.2019.10.25.1080i.HDTV-WH.part5.rar
    http://nitroflare.com/view/0A0257306882DD0/WWE.SmacKDown.2019.10.25.1080i.HDTV-WH.part6.rar

    ====== RAPIDGATOR ======
    https://rapidgator.net/file/9c6278c2bc5fcf9c6f4bba637a38873c/WWE.SmacKDown.2019.10.25.1080i.HDTV-WH.part1.rar
    https://rapidgator.net/file/10d0dea657b0c843db2a81ddad483815/WWE.SmacKDown.2019.10.25.1080i.HDTV-WH.part2.rar
    https://rapidgator.net/file/bb8fefe2d6e46ff800f8b30266ac2e1d/WWE.SmacKDown.2019.10.25.1080i.HDTV-WH.part3.rar
    https://rapidgator.net/file/f9649ced1079895a31d11fc912a4b8e5/WWE.SmacKDown.2019.10.25.1080i.HDTV-WH.part4.rar
    https://rapidgator.net/file/701775ba9b33b18b10f6f8a087d2f501/WWE.SmacKDown.2019.10.25.1080i.HDTV-WH.part5.rar
    https://rapidgator.net/file/5a127c4e31c5fe723de3f1d1624a9844/WWE.SmacKDown.2019.10.25.1080i.HDTV-WH.part6.rar

Leave a Reply

Your email address will not be published. Required fields are marked *