WWE Backstage 2020 06 16 HDTV x264-NWCHD

WWE Backstage 2020 06 16 HDTV x264-NWCHD

WWE Backstage 6/16/20 HDTV x264-NWCHD
WWE Backstage 2020 06 16 HDTV x264-NWCHD
File inFormation
DescriptionName – WWE.Backstage.2020.06.16.HDTV.x264-NWCHD
Released – 06.17.2020
Aired – 06.16.2020
Size – 514 MB
Source – FS1 HD
Container – MP4
Resolution – 704 x 400 (16:9) @ 29.970 FPS
Video – x264 @ 1400 KBPS
Audio – AAC @ 192 KBPS
Length – 00:44:17 MIN
Download links

Rapidgator // Nitroflare // Uploadgig // ddl // Rockfile

references

Home PagePremium Site

More details of file info :

General
Complete name : HDTV.x264-NWCHD.mp4
Format : MPEG-4
Format profile : Base Media
File size : 514 MiB
Duration : 44 min 17 s
Overall bit rate : 1 622 kb/s
Writing application : WWE BackStage

Video
ID : WWE Backstage
Format : AVC
Duration : 44 min 17 s
Bit rate : 1 400 kb/s
Width : 704 pixels
Height : 400 pixels
Display aspect ratio : 16:9
Frame rate mode : Variable
Frame rate : 29.970 (30000/1001) FPS
Minimum frame rate : 29.441 FPS
Maximum frame rate : 29.970 FPS
Color space : YUV
Chroma subsampling : 4:2:0
Bit depth : 8 bits
Scan type : Progressive
Bits/(Pixel*Frame) : 0.166
Stream size : 452 MiB (88%)
Color range : WWE Backstage
Color primaries : BT.709
Transfer characteristics : BT.709
Matrix coefficients : BT.709
Codec configuration box : avcC

Audio
ID : wwe Backstage
Format : AAC LC
Codec ID : mp4a-40-2
Duration : 44 min 17 s
Bit rate mode : Constant
Bit rate : 188 kb/s
Channel(s) : 2 channels
Channel layout : L R
Sampling rate : 48.0 kHz
Frame rate : 46.875 FPS (1024 SPF)
Compression mode : Lossy
Stream size : 59.4 MiB (12%)
Title : Stereo
Default : WWE Backstage
Alternate group : 1

 167 total views,  1 views today

WWE Backstage 2020 06 16 HDTV x264-NWCHD

WH : Source OF Wrestling Releases / Home OF WH Releases

Buy Premium or Renew From WH Links to Keep it Alive

About PH.M.H

[Wrestling Best Uploader]

View all posts by PH.M.H →

Leave a Reply

Your email address will not be published. Required fields are marked *