WWE Backstage 2020 05 05 720p HDTV x264-WH

WWE Backstage 2020 05 05 720p HDTV x264-WH

WWE Backstage 2020 05 05 720p HDTV x264-WH

General
Complete name : WWE.Backstage.2020.05.05.720p.HDTV.x264-WH.mp4
Format : MPEG-4
Format profile : Base Media
Codec ID : isom (isom/iso2/avc1/mp41)
File size : 960 MiB
Duration : 43 min 6 s
Overall bit rate : 3 114 kb/s

Video
ID : 1
Format : AVC
Duration : 43 min 6 s
Bit rate : 3 040 kb/s
Width : 1 280 pixels
Height : 720 pixels
Display aspect ratio : 16:9
Frame rate mode : Constant
Frame rate : 25.000 FPS
Color space : YUV
Chroma subsampling : 4:2:0
Bit depth : 8 bits
Scan type : Progressive
Bits/(Pixel*Frame) : 0.132
Stream size : 934 MiB (97%)
Codec configuration box : avcC

Audio
ID : 2
Format : AAC LC
Codec ID : mp4a-40-2
Duration : 43 min 6 s
Bit rate mode : Constant
Bit rate : 80.0 kb/s
Channel(s) : 1 channel
Channel layout : C
Sampling rate : 44.1 kHz
Frame rate : 43.066 FPS (1024 SPF)
Compression mode : Lossy
Stream size : 24.7 MiB (3%)
Default : Yes
Alternate group : 1

 66 total views,  1 views today

About PH.M.H

[Wrestling Best Uploader]

View all posts by PH.M.H

2 Comments on “WWE Backstage 2020 05 05 720p HDTV x264-WH”

Leave a Reply

Your email address will not be published. Required fields are marked *