WWE Super Showdown Kick Off 720p HDTV H264-XWT

WWE Super Showdown Kick Off 720p HDTV H264-XWT
WWE Super Showdown Kick Off 720p HDTV H264-XWT
WWE Super Showdown Kick Off 720p HDTV H264-XWT

General
Complete name : WWE.Super.Showdown.Kick.Off.720p.HDTV.H264-XWT.mp4
Format : MPEG-4
Format profile : Base Media
Codec ID : isom (isom/iso2/avc1/mp41)
File size : 2.20 GiB
Duration : 59 min 31 s
Overall bit rate mode : Variable
Overall bit rate : 5 280 kb/s
Writing application : Lavf54.63.104

Video
ID : 1
Format : AVC
Format/Info : Advanced Video Codec
Format profile : [email protected]
Format settings : CABAC / 3 Ref Frames
Format settings, CABAC : Yes
Format settings, Reference : 3 frames
Codec ID : avc1
Codec ID/Info : Advanced Video Coding
Duration : 59 min 31 s
Bit rate : 5 078 kb/s
Width : 1 280 pixels
Height : 720 pixels
Display aspect ratio : 16:9
Frame rate mode : Variable
Frame rate : 59.940 (60000/1001) FPS
Minimum frame rate : 59.880 FPS
Maximum frame rate : 60.000 FPS
Standard : Component
Color space : YUV
Chroma subsampling : 4:2:0
Bit depth : 8 bits
Scan type : Progressive
Bits/(Pixel*Frame) : 0.092
Stream size : 2.11 GiB (96%)
Color range : Limited
Color primaries : BT.709
Transfer characteristics : BT.709
Matrix coefficients : BT.709
Codec configuration box : avcC

Audio
ID : 2
Format : AAC LC
Format/Info : Advanced Audio Codec Low Complexity
Codec ID : mp4a-40-2
Duration : 59 min 31 s
Duration_LastFrame : -21 ms
Bit rate mode : Variable
Bit rate : 192 kb/s
Channel(s) : 2 channels
Channel layout : L R
Sampling rate : 48.0 kHz
Frame rate : 46.875 FPS (1024 SPF)
Compression mode : Lossy
Stream size : 80.7 MiB (4%)
Language : English
Default : Yes
Alternate group : 1

WWE Super Showdown Kick Off 720p HDTV H264-XWT

ARCHIVE [HISTORICAL HOST]

ARCHIVE [HERE]

filetransfer

filetransfer.io/data-package/ddJI5gbW

1fichier.com/?zvvnneup6bv00zfjddza
anonfile.com/L2q5w3udn5
bayfiles.com/R4q2wcu0nf
bitster.cz/file/fd23f8
dl.free.fr/jv0ogIhdG
file.bz/o2r3w3uan3
www.filefactory.com/file/19zv81ifrg9b
filerio.in/kqtmxdmkir7c
filescdn.net/oly8ijdw7v1l
multiup.org/download/21cb8c246600f568410b43d19fbfbea2
nitroflare.com/view/FCD6ED6E03CB5BA
openload.co/f/6lzxB34y-z8
rg.to/file/17f4c26eae62bb29d11727ad0203aadf
turbobit.net/cnefp66a9y4z.html
uploadgig.com/file/download/6C9d5F76cf83e2c9

 106 total views,  1 views today

WWE Super Showdown Kick Off 720p HDTV H264-XWT

WH : Source OF Wrestling Releases / Home OF WH Releases

Buy Premium or Renew From WH Links to Keep it Alive

About PH.M.H

[Wrestling Best Uploader]

View all posts by PH.M.H →

Leave a Reply

Your email address will not be published. Required fields are marked *