WWE Super ShowDown 2019 PPV WEB h264-HEEL

WWE Super ShowDown 2019 PPV WEB h264-HEEL

WWE Super ShowDown 2019 PPV WEB h264-HEEL

WWE Super ShowDown 2019 PPV WEB h264-HEEL

General
Complete name : WWE.Super.ShowDown.2019.PPV.WEB.h264-HEEL.mp4
Format : MPEG-4
Format profile : Base Media
Codec ID : isom (isom/iso2/avc1/mp41)
File size : 2.89 GiB
Duration : 3 h 49 min
Overall bit rate mode : Variable
Overall bit rate : 1 804 kb/s
Writing application : Lavf58.27.103

Video
ID : 1
Format : AVC
Format/Info : Advanced Video Codec
Format profile : [email protected]
Format settings : CABAC / 4 Ref Frames
Format settings, CABAC : Yes
Format settings, Reference : 4 frames
Codec ID : avc1
Codec ID/Info : Advanced Video Coding
Duration : 3 h 49 min
Duration_FirstFrame : 5 ms
Bit rate mode : Constant
Bit rate : 1 704 kb/s
Width : 896 pixels
Height : 504 pixels
Display aspect ratio : 16:9
Frame rate mode : Constant
Frame rate : 29.970 (30000/1001) FPS
Color space : YUV
Chroma subsampling : 4:2:0
Bit depth : 8 bits
Scan type : Progressive
Bits/(Pixel*Frame) : 0.126
Stream size : 2.73 GiB (94%)
Codec configuration box : avcC

Audio
ID : 2
Format : AAC LC
Format/Info : Advanced Audio Codec Low Complexity
Codec ID : mp4a-40-2
Duration : 3 h 49 min
Bit rate mode : Variable
Bit rate : 93.5 kb/s
Maximum bit rate : 100 kb/s
Channel(s) : 2 channels
Channel layout : L R
Sampling rate : 48.0 kHz
Frame rate : 46.875 FPS (1024 SPF)
Compression mode : Lossy
Stream size : 153 MiB (5%)
Language : English
Default : Yes
Alternate group : 1

Text #1
ID : 1-CC1
Format : EIA-608
Muxing mode : SCTE 128 / DTVCC Transport
Muxing mode, more info : Muxed in Video #1
Duration : 3 h 49 min
Bit rate mode : Constant
Stream size : 0.00 Byte (0%)
Encoded stream size : 0.00 Byte (0%)
CaptionServiceName : CC1

Text #2
ID : 1-T1
Format : EIA-608
Muxing mode : SCTE 128 / DTVCC Transport
Muxing mode, more info : Muxed in Video #1
Duration : 3 h 49 min
Bit rate mode : Constant
Stream size : 0.00 Byte (0%)
Encoded stream size : 0.00 Byte (0%)
CaptionServiceName : T1

WWE Super ShowDown 2019 PPV WEB h264-HEEL

Archive [Historical Host]

Archive click [Here]

filetransfer [Recommended by me]

filetransfer.io/data-package/6ypx6UpE

GOOGLE.DRIVE

drive.google.com/file/d/1JKuO8fCbfAZxlluoQuDu8aHO-Su5E9Hx/view

1fichier.com/?t0t6dwb4cgwj05lqk4fi
filerio.in/lu81uqk12j8y
multiup.org/download/d418a0fd03ee22d979ba2c0e454c08e9
nitroflare.com/view/48F0DAA55A84DD8
openload.co/f/-faaUqOnrAc
rg.to/file/1353042b0525218b98fa17b7745b897d
turbobit.net/wmuqvsx1y2du.html
uploadgig.com/file/download/d6Bdd316c682283f

anonfile.com/ceuay7u7n5
dl.free.fr/jvCRF90s4
filescdn.net/yx2ipp8kogk4

bayfiles.com/y3w2y2ufnf
bitster.cz/file/0f52e5
file.bz/75uay2u2n8

 133 total views,  1 views today

WWE Super ShowDown 2019 PPV WEB h264-HEEL

WH : Source OF Wrestling Releases / Home OF WH Releases

Buy Premium or Renew From WH Links to Keep it Alive

About PH.M.H

[Wrestling Best Uploader]

View all posts by PH.M.H →

Leave a Reply

Your email address will not be published. Required fields are marked *