WWE Super ShowDown 2019 PPV 1080p HDTV x264-Star

WWE Super ShowDown 2019 PPV 1080p HDTV x264-Star

WWE Super ShowDown 2019 PPV 1080p HDTV x264-Star

WWE Super ShowDown 2019 PPV 1080p HDTV x264-Star

DescriptionWWE.Super.ShowDown.2019.PPV.1080p.HDTV.x264-Star 
Release Info: 
Show Name: WWE Super ShowDown 2019 
Genre: Wrestling 
Release Date: 2019-06-08(UK) 
Air Date: 2019-06-07(US) 
Source : HDTV 
Container: MP4 
Video: x264, 10.2 Mb/s, 29,970fps, 1920×1080, 16:9 
Audio: AAC, 224bps, 48KHz, 2ch 
Size: 16.3 GB 
Runtime: 3h 49mn

General
Complete name : WWE.Super.ShowDown.2019.PPV.1080p.HDTV.x264-Star.mp4
Format : MPEG-4
Format profile : Base Media / Version 2
Codec ID : mp42 (isom/iso2/avc1/mp41)
File size : 16.3 GiB
Duration : 3 h 49 min
Overall bit rate : 10.2 Mb/s
Encoded date : UTC 2019-06-08 08:22:41
Tagged date : UTC 2019-06-08 08:22:41
Writing application : HandBrake 1.2.2 2019022300

Video
ID : 1
Format : AVC
Format/Info : Advanced Video Codec
Format profile : [email protected]
Format settings : CABAC / 4 Ref Frames
Format settings, CABAC : Yes
Format settings, Reference : 4 frames
Codec ID : avc1
Codec ID/Info : Advanced Video Coding
Duration : 3 h 49 min
Bit rate : 10 000 kb/s
Width : 1 920 pixels
Height : 1 080 pixels
Display aspect ratio : 16:9
Frame rate mode : Constant
Frame rate : 29.970 (30000/1001) FPS
Color space : YUV
Chroma subsampling : 4:2:0
Bit depth : 8 bits
Scan type : Progressive
Bits/(Pixel*Frame) : 0.161
Stream size : 16.0 GiB (98%)
Writing library : x264 core 157 r2935 545de2f
Encoded date : UTC 2019-06-08 08:22:41
Tagged date : UTC 2019-06-08 08:22:41
Color range : Limited
Color primaries : BT.709
Transfer characteristics : BT.709
Matrix coefficients : BT.709
Codec configuration box : avcC

Audio
ID : 2
Format : AAC LC
Format/Info : Advanced Audio Codec Low Complexity
Codec ID : mp4a-40-2
Duration : 3 h 49 min
Bit rate mode : Constant
Bit rate : 225 kb/s
Channel(s) : 2 channels
Channel layout : L R
Sampling rate : 48.0 kHz
Frame rate : 46.875 FPS (1024 SPF)
Compression mode : Lossy
Stream size : 369 MiB (2%)
Title : Stereo
Default : Yes
Alternate group : 1
Encoded date : UTC 2019-06-08 08:22:41
Tagged date : UTC 2019-06-08 08:22:41

WWE Super ShowDown 2019 PPV 1080p HDTV x264-Star

ONE LINK DOWNLOAD

1fichier.com/?nfj4h499vcph78kc2gdi
bitster.cz/file/e32515
turbobit.net/dt8l0f9ri037.html

4.5 GB [4 PARTS] // INTERCHANGEABLE LINKS

1fichier.com/?i7ozttavaox057ph6js4
1fichier.com/?jjr2ztc1hnhxuvizeja2
1fichier.com/?6slu4sdga6g77uwx1xhi
1fichier.com/?bzpqu0vuod26caxji7ar
anonfile.com/Uf5a32u0nb
anonfile.com/b8R631u7n3
anonfile.com/b6f248u9n7
bayfiles.com/d1B831u6n2
bayfiles.com/Dag044ubn9
bayfiles.com/ydk841u6nf
bayfiles.com/Lcle46u5n3
bitster.cz/file/fb3fb3
bitster.cz/file/e03868
bitster.cz/file/a29b9a
dl.free.fr/mit2H1Ygp
dl.free.fr/fRg8nwt96
dl.free.fr/f9Q52VICf
dl.free.fr/fhTpXMilb
file.bz/LeB531udna
file.bz/i7Rd3ducn7
file.bz/V8g44cu1nd
file.bz/l6m740uan8
filerio.in/7e24fopfukf0
filerio.in/jwj3i66s4pmj
filerio.in/g7fjkmikczuz
filerio.in/x65ojo8337nd
filescdn.net/23wp3rgwn3l7
filescdn.net/p3359sik9wzb
filescdn.net/j7ekjan4emcy
filescdn.net/wm1llym2mktu
multiup.org/download/c3b7be06c8d47ff7883f2b82493e5e73/WWE.Super.ShowDown.2019.PPV.1080p.HDTV.x264-Star.part1.rar
multiup.org/download/c64f577980460d1a2cc62c18e3948277/WWE.Super.ShowDown.2019.PPV.1080p.HDTV.x264-Star.part2.rar
multiup.org/download/f444d69658de294c5df8836bb7790b3c/WWE.Super.ShowDown.2019.PPV.1080p.HDTV.x264-Star.part3.rar
multiup.org/download/63383e71a097a26bd9d7a8015003164f/WWE.Super.ShowDown.2019.PPV.1080p.HDTV.x264-Star.part4.rar
nitroflare.com/view/DAF6B5A8C54FE4C/WWE.Super.ShowDown.2019.PPV.1080p.HDTV.x264-Star.part1.rar
nitroflare.com/view/D9A73D5143F84C4/WWE.Super.ShowDown.2019.PPV.1080p.HDTV.x264-Star.part2.rar
nitroflare.com/view/12348F9DC43BF0F/WWE.Super.ShowDown.2019.PPV.1080p.HDTV.x264-Star.part3.rar
nitroflare.com/view/AD46EE1FAD873A4/WWE.Super.ShowDown.2019.PPV.1080p.HDTV.x264-Star.part4.rar
rg.to/file/724ecdcf539fe934033b07b157987a9e
rg.to/file/71da4fa3a3ba28ec4194d642c1b2896a
rg.to/file/bc1baea12438947fbf163efa33f22e5e
rg.to/file/b888c218f559124eda1123296c9a107f
turbobit.net/qdtawh28fjq7.html
turbobit.net/sswz8pi3u5ih.html
turbobit.net/7yc3s1b3bfpk.html
turbobit.net/ylsk3zf2l8t7.html

 122 total views,  1 views today

WWE Super ShowDown 2019 PPV 1080p HDTV x264-Star

WH : Source OF Wrestling Releases / Home OF WH Releases

Buy Premium or Renew From WH Links to Keep it Alive

About PH.M.H

[Wrestling Best Uploader]

View all posts by PH.M.H →

2 Comments on “WWE Super ShowDown 2019 PPV 1080p HDTV x264-Star”

Leave a Reply

Your email address will not be published. Required fields are marked *