WWE SmackDown Read iNFO 2020 06 05 1080i HDTV -WH

WWE SmackDown Read iNFO 2020 06 05 1080i HDTV -WH [12 GB]

WWE SmackDown Read iNFO 2020 06 05 1080i HDTV -WH
WH Note : First 6 Minutes were Missed , have to restart PC - Sorry

General
ID : 1 (0x1)
Complete name : WWE.SmackDown.Read iNFO.2020.06.05.1080i.HDTV-WH.ts
Format : MPEG-TS
File size : 11.9 GiB
Duration : 1 h 51 min
Overall bit rate mode : Variable
Overall bit rate : 15.3 Mb/s

Video
Format : AVC
Codec ID : 27
Duration : 1 h 50 min
Bit rate : 13.9 Mb/s
Width : 1 920 pixels
Height : 1 080 pixels
Display aspect ratio : 16:9
Frame rate : 25.000 FPS
Color space : YUV
Chroma subsampling : 4:2:0
Bit depth : 8 bits
Scan type : Interlaced
Scan type, store method : Separated fields
Scan order : Top Field First
Bits/(Pixel*Frame) : 0.269
Stream size : 10.8 GiB (91%)
Color range : Limited
Color primaries : BT.709
Transfer characteristics : BT.709
Matrix coefficients : BT.709

Audio #1
ID : 3060 (0xBF4)
Menu ID : 1 (0x1)
Format : MPEG Audio
Format version : Version 1
Format profile : Layer 2
Codec ID : 3
Duration : 1 h 51 min
Bit rate mode : Constant
Bit rate : 320 kb/s
Channel(s) : 2 channels
Sampling rate : 48.0 kHz
Frame rate : 41.667 FPS (1152 SPF)
Compression mode : Lossy
Delay relative to video : -630 ms
Stream size : 254 MiB (2%)
Language : English

Audio #2
ID : 4060 (0xFDC)
Menu ID : 1 (0x1)
Format : MPEG Audio
Format version : Version 1
Format profile : Layer 2
Codec ID : 3
Duration : 1 h 51 min
Bit rate mode : Constant
Bit rate : 320 kb/s
Channel(s) : 2 channels
Sampling rate : 48.0 kHz
Frame rate : 41.667 FPS (1152 SPF)
Compression mode : Lossy
Delay relative to video : -630 ms
Stream size : 254 MiB (2%)
Language : English

WWE SmackDown Read iNFO 2020 06 05 1080i HDTV -WH
WWE SmackDown Read iNFO 2020 06 05 1080i HDTV -WH
WWE SmackDown Read iNFO 2020 06 05 1080i HDTV -WH
WWE SmackDown Read iNFO 2020 06 05 1080i HDTV -WH
WWE SmackDown Read iNFO 2020 06 05 1080i HDTV -WH

 276 total views,  1 views today

WWE SmackDown Read iNFO 2020 06 05 1080i HDTV -WH

WH : Source OF Wrestling Releases / Home OF WH Releases

Buy Premium or Renew From WH Links to Keep it Alive

About PH.M.H

[Wrestling Best Uploader]

View all posts by PH.M.H →