WWE SmackDown Live 2019 06 18 720p HDTV h264-DAZ

WWE SmackDown Live 2019 06 18 720p HDTV h264-DAZ
WWE SmackDown Live 2019 06 18 720p HDTV h264-DAZ
WWE SmackDown Live 2019 06 18 720p HDTV h264-DAZ
Source : Official Satellite Feed @ 50fps . This means during commercials 
there is a short black screen and then unaired segments from the show so
 you get more then a normal episode.
ID                                       : 1
Format                                   : AVC
Format/Info                              : Advanced Video Codec
Format profile                           : [email protected]
Format settings                          : CABAC / 1 Ref Frames
Format settings, CABAC                   : Yes
Format settings, Reference frames        : 1 frame
Codec ID                                 : V_MPEG4/ISO/AVC
Duration                                 : 1 h 59 min
Bit rate mode                            : Variable
Bit rate                                 : 6 387 kb/s
Maximum bit rate                         : 10 000 kb/s
Width                                    : 1 280 pixels
Height                                   : 720 pixels
Display aspect ratio                     : 16:9
Frame rate mode                          : Constant
Frame rate                               : 50.000 FPS
Color space                              : YUV
Chroma subsampling                       : 4:2:0
Bit depth                                : 8 bits
Scan type                                : Progressive
Bits/(Pixel*Frame)                       : 0.139
Stream size                              : 5.35 GiB (97%)
Default                                  : Yes
Forced                                   : No

ID                                       : 2
Format                                   : AAC LC
Format/Info                              : Advanced Audio Codec Low Complexity
Codec ID                                 : A_AAC-2
Duration                                 : 1 h 59 min
Bit rate                                 : 192 kb/s
Channel(s)                               : 2 channels
Channel layout                           : L R
Sampling rate                            : 48.0 kHz
Frame rate                               : 46.875 FPS (1024 SPF)
Compression mode                         : Lossy
Delay relative to video                  : 7 ms
Stream size                              : 165 MiB (3%)
Default                                  : Yes
Forced                                   : No
WWE SmackDown Live 2019 06 18 720p HDTV h264-DAZ
WWE SmackDown Live 2019 06 18 720p HDTV h264-DAZ
WWE SmackDown Live 2019 06 18 720p HDTV h264-DAZ
WWE SmackDown Live 2019 06 18 720p HDTV h264-DAZ
WWE SmackDown Live 2019 06 18 720p HDTV h264-DAZ
WWE SmackDown Live 2019 06 18 720p HDTV h264-DAZ

1fichier

1fichier.com/?mxib4z6rif3xx27uqlyi

dl.free.fr
dl.free.fr/np8mfuyXk

filerio
filerio.in/b3rer6bloeq9

multiup
multiup.org/download/71cd09af352e827608d647de02896771

turbobit
turbobit.net/s8ewfzsukled.html

bitster

bitster.cz/file/cfb9a9

file.bz
file.bz/Q4MaO8v1n1

 75 total views,  2 views today

WWE SmackDown Live 2019 06 18 720p HDTV h264-DAZ

WH : Source OF Wrestling Releases / Home OF WH Releases

Buy Premium or Renew From WH Links to Keep it Alive

About PH.M.H

[Wrestling Best Uploader]

View all posts by PH.M.H →

3 Comments on “WWE SmackDown Live 2019 06 18 720p HDTV h264-DAZ”

  1. Hi
    Sorry for sending this here but
    When would you put Dana White Tuesday night contender series
    And please if its possible put it x265

Leave a Reply

Your email address will not be published. Required fields are marked *