WWE Smackdown Live 2019 06 11 1080p HDTV x264-Star

WWE Smackdown Live 2019 06 11 1080p HDTV x264-Star

WWE Smackdown Live 2019 06 11 1080p HDTV x264-Star

WWE Smackdown Live 2019 06 11 1080p HDTV x264-Star

DescriptionWWE.Smackdown.Live.2019.06.11.1080p.HDTV.x264-Star
Release Info:
Show Name: WWE Smackdown Live
Genre: Wrestling
Release Date: 2019-06-12(UK)
Air Date: 2019-06-11(US)
Source : HDTV
Container: MP4
Video: x264, 10.3 Mb/s, 29,970fps, 1920×1080, 16:9
Audio: AAC, 224bps, 48KHz, 2ch
Size: 6.22 GB
Runtime: 1h 26mn

General
Complete name : WWE.Smackdown.Live.2019.06.11.1080p.HDTV.x264-Star.mp4
Format : MPEG-4
Format profile : Base Media / Version 2
Codec ID : mp42 (isom/iso2/avc1/mp41)
File size : 6.22 GiB
Duration : 1 h 26 min
Overall bit rate : 10.3 Mb/s
Encoded date : UTC 2019-06-12 04:56:33
Tagged date : UTC 2019-06-12 04:56:33
Writing application : HandBrake 1.2.2 2019022300

Video
ID : 1
Format : AVC
Format/Info : Advanced Video Codec
Format profile : [email protected]
Format settings : CABAC / 4 Ref Frames
Format settings, CABAC : Yes
Format settings, Reference : 4 frames
Codec ID : avc1
Codec ID/Info : Advanced Video Coding
Duration : 1 h 26 min
Bit rate : 10 000 kb/s
Width : 1 920 pixels
Height : 1 080 pixels
Display aspect ratio : 16:9
Frame rate mode : Constant
Frame rate : 29.970 (30000/1001) FPS
Color space : YUV
Chroma subsampling : 4:2:0
Bit depth : 8 bits
Scan type : Progressive
Bits/(Pixel*Frame) : 0.161
Stream size : 6.07 GiB (98%)
Writing library : x264 core 157 r2935 545de2f
Encoded date : UTC 2019-06-12 04:56:33
Tagged date : UTC 2019-06-12 04:56:33
Color range : Limited
Color primaries : BT.709
Transfer characteristics : BT.709
Matrix coefficients : BT.709
Codec configuration box : avcC

Audio
ID : 2
Format : AAC LC
Format/Info : Advanced Audio Codec Low Complexity
Codec ID : mp4a-40-2
Duration : 1 h 26 min
Bit rate mode : Constant
Bit rate : 225 kb/s
Channel(s) : 2 channels
Channel layout : L R
Sampling rate : 48.0 kHz
Frame rate : 46.875 FPS (1024 SPF)
Compression mode : Lossy
Stream size : 139 MiB (2%)
Title : Stereo
Default : Yes
Alternate group : 1
Encoded date : UTC 2019-06-12 04:56:33
Tagged date : UTC 2019-06-12 04:56:33

WWE Smackdown Live 2019 06 11 1080p HDTV x264-Star

ONE LINK DOWNLOAD

1fichier.com/?30e30vy3jdpht6q4sqj4
dl.free.fr/oAZS9fAjp
filerio.in/youb4o47xe3a
multiup.org/download/d097bf99d4afb976753b04c27c7487a3
nitroflare.com/view/529F2B2F867EAB8

bitster.cz/file/a11476
rg.to/file/1edb83f77129a94872a829fce118f36e
turbobit.net/hle4b5ngg7wg.html

anonfile.com/M2CcY0ucn4
bayfiles.com/Z6C3Y3u8n8
file.bz/VaBbY3u3nb

2 GB [4 PARTS] // INTERCHANGEABLE LINKS

1fichier.com/?4bd7a8ub67rv1yqeknfd
1fichier.com/?085lfb9hn9o95u3v8m1v
1fichier.com/?hlrvwa4rsnetxxivhs0b
1fichier.com/?n925an3q3ewhcghr8gdc
anonfile.com/p2A3Ybufn3
anonfile.com/ZeE1Y7ucnb
anonfile.com/QaJ8Yeu5nd
anonfile.com/0dKaYaubn5
bayfiles.com/neD9Yau1nc
bayfiles.com/O4I7Y0u2ne
bayfiles.com/p0L5Y5u3n4
bayfiles.com/hcL6Y9u0nf
bitster.cz/file/ffddd4
bitster.cz/file/6439ef
bitster.cz/file/8fa986
bitster.cz/file/16cb59
ddl.to/y7behxp5vyrx
ddl.to/co29fyr0xan9
ddl.to/v4wo8tjo7872
ddl.to/9edp2k84q5tx
dl.free.fr/l1ofKetpY
dl.free.fr/is78caisJ
dl.free.fr/wBwvwRdxd
file.bz/JcB3Y1u5n4
file.bz/Q8I4Y2udn0
file.bz/o1L7Ycubn2
file.bz/jbL7Ydudn2
www.filefactory.com/file/5uwegzd8cyod
filerio.in/i8icfavdt8fn
filerio.in/gv2p7tiwt3gh
filerio.in/p3ej4i13m8c9
filerio.in/312tkz4rk9ac
multiup.org/download/e1e7026968546f42be6957797d702a1b
multiup.org/download/396802127902b56219b1217b07b4eefa
multiup.org/download/ed5d54ec3e748deec46eb2cdedfc1d13
multiup.org/download/e549edd149a6eca12124a94ffbbd89bf
nitroflare.com/view/EE2A7959FCC088B
nitroflare.com/view/E64B4AE26C27359
nitroflare.com/view/B7D89679D1B73CB
nitroflare.com/view/7EBDC7D25B4455B
rg.to/file/9e624cf3b0a581ed2b99b5965f285ddc
rg.to/file/0554d6f4ce1edc36c27fefd68bfa83d6
rg.to/file/3b944100d894c62f367cf52f1169d5cd
rg.to/file/d2c457fede830a6ef918c348973bb47d
turbobit.net/0nk2iifn18k4.html
turbobit.net/ttw3pa3fm41d.html
turbobit.net/wajrddike9iw.html
turbobit.net/12dyah7vx8hr.html

 96 total views,  1 views today

WWE Smackdown Live 2019 06 11 1080p HDTV x264-Star

WH : Source OF Wrestling Releases / Home OF WH Releases

Buy Premium or Renew From WH Links to Keep it Alive

About PH.M.H

[Wrestling Best Uploader]

View all posts by PH.M.H →

Leave a Reply

Your email address will not be published. Required fields are marked *