WWE SmackDown 2020 07 24 1080i HDTV -WH

WWE SmackDown 2020 07 24 1080i HDTV -WH [12.7 GB]

WWE SmackDown 2020 07 24 1080i HDTV -WH
File information

General
Complete name : WWE.SmackDown.2020.07.24.1080i.HDTV-WH.ts
Format : MPEG-TS
File size : 12.8 GiB
Duration : 1 h 59 min
Overall bit rate mode : Variable
Overall bit rate : 15.3 Mb/s

Video
ID : 2060 (0x80C)
WWE Smackdown 1080i
Format : AVC
Codec ID : 27
Duration : 1 h 36 min
Bit rate : 13.9 Mb/s
Width : 1 920 pixels
Height : 1 080 pixels
Display aspect ratio : 16:9
Frame rate : 25.000 FPS
Color space : YUV
Chroma subsampling : 4:2:0
Bit depth : 8 bits
Scan type : Interlaced
Separated fields
Scan order : Top Field First
Bits/(Pixel*Frame) : 0.269
Stream size : 9.36 GiB (73%)
Color range : Limited
WWE Smackdown 1080i

Audio #1
ID : 3060 (0xBF4)
WWE Smackdown 1080i
Format : MPEG Audio
Codec ID : 3
Duration : 1 h 59 min
Bit rate mode : Constant
Bit rate : 320 kb/s
Channel(s) : 2 channels
Sampling rate : 48.0 kHz
Compression mode : Lossy
Stream size : 272 MiB (2%)
Language : English

Audio #2
ID : 4060 (0xFDC)
WWE Smackdown 1080i
Format : MPEG Audio
Codec ID : 3
Duration : 1 h 59 min
Bit rate mode : Constant
Bit rate : 320 kb/s
Channel(s) : 2 channels
Sampling rate : 48.0 kHz
Compression mode : Lossy
Stream size : 272 MiB (2%)
Language : English

Screen shots
WWE SmackDown 2020 07 24 1080i HDTV -WH
WWE SmackDown 2020 07 24 1080i HDTV -WH
WWE SmackDown 2020 07 24 1080i HDTV -WH
WWE SmackDown 2020 07 24 1080i HDTV -WH
WWE SmackDown 2020 07 24 1080i HDTV -WH

references

wrestling homepremium site

 337 total views,  1 views today

WWE SmackDown 2020 07 24 1080i HDTV -WH

WH : Source OF Wrestling Releases / Home OF WH Releases

Buy Premium or Renew From WH Links to Keep it Alive

About PH.M.H

[Wrestling Best Uploader]

View all posts by PH.M.H →

Leave a Reply

Your email address will not be published. Required fields are marked *