WWE Smackdown 2020 06 26 1080p HDTV x264-Star

WWE Smackdown 2020 06 26 1080p HDTV x264-Star

WWE Smackdown 2020 06 26 1080p HDTV x264-Star
File info

WWE.Smackdown.2020.06.26.1080p.HDTV.x264-Star
Release Info:
Show Name: WWE Friday Night SmackDown
Genre: Wrestling
Release Date: 2020-06-27(UK)
Air Date: 2020-06-26(US)
Source : HDTV
Container: MKV
Video: H.264 AVC, 18.5 Mb/s, 59,940fps, 1920×1080
Audio: Dolby Digital, AC3, 448kb/s, 48KHz, 6ch
Size: 11.4 GB
Runtime: 01h 28min


WWE Smackdown Screen Shots
WWE Smackdown 2020 06 26 1080p HDTV x264-Star
single download links oF WWE Smackdown

RapidGator | NitroFlare | UploadGiG | More links

* * * * * * * * *

File technical information

Complete name : WWE.Smackdown.2020.06.26.1080p.HDTV.x264-Star.mkv
Format : Matroska
Format version : Version 4
File size : 11.4 GiB
Duration : 1 h 28 min
Overall bit rate : 18.5 Mb/s
Encoded date : UTC 2020-06-27 07:10:19
Writing application : WWE Smackdown
Writing library : Lavf58.29.100
Error WWE Type : WWE Smackdown

Video
ID : WWE
Format : AVC
Format/Info : Advanced Video Codec
aprofile : [email protected]
settings : CABAC / 4 Ref Frames
WWE settings, CABAC : Yes
Format settings, : 4 frames
Codec ID : WWE Smackdown
Duration : 1 h 28 min
Bit rate : 18.0 Mb/s
Width : 1 920 pixels
Height : 1 080 pixels
Display aspect ratio : 16:9
Frame rate mode : Constant
Frame rate : 59.940 (60000/1001) FPS
Color space : YUV
Chroma subsampling : 4:2:0
Bit depth : 8 bits
Scan type : Progressive
Bits/(Pixel*Frame) : 0.145
Stream size : 10.9 GiB (96%)
Forced : WWE Smackdown
Color range : Limited
Color primaries : BT.709
Transfer WWE: BT.709
Matrix coefficients : WWE Smackdown

Audio
ID : WWE Smackdown
Format : AC-3
Format/Info : Audio Coding 3
Commercial name : WWE
Codec ID : A_AC3
Duration : 1 h 28 min
Bit rate mode : Constant
Bit rate : 448 kb/s
Channel(s) : 6 channels
Channel layout : L R C LFE Ls Rs
Sampling rate : 48.0 kHz
Frame rate : 31.250 FPS (1536 SPF)
WWE mode : Lossy
Delay relative to video : -5 ms
Stream size : 283 MiB (2%)
Title : WWE Smackdown
Service kind : Complete Main
Default : Yes
Forced :WWE Smackdown

Event Preview

Preview : A special “Tribute To The Undertaker” this week on SmackDown
The special “Tribute To The Undertaker” will include the first television airing of the astonishing Boneyard Match between The Dead Man and AJ Styles at WrestleMania 36.

*A special “Tribute To The Undertaker” this week on SmackDown.

W

 314 total views,  3 views today

WWE Smackdown 2020 06 26 1080p HDTV x264-Star

WH : Source OF Wrestling Releases / Home OF WH Releases

Buy Premium or Renew From WH Links to Keep it Alive

About PH.M.H

[Wrestling Best Uploader]

View all posts by PH.M.H →