WWE SmackDown 2020 06 12 720p WEB h264-HEEL

WWE SmackDown 2020 06 12 720p WEB h264-HEEL
WWE SmackDown 2020 06 12 720p WEB h264-HEEL
File iNfo

General
Complete name :WWE.SmackDown.2020.06.12.720p.WEB.h264-HEEL.mp4
Format : MPEG-4
File size : 6.55 GiB
Duration : 1 h 27 min
Overall bit rate mode : Variable
Overall bit rate : 10.7 Mb/s
Movie name : WWE SMACKDOWN
Law rating : TV-PG (DLSV)
Writing application : WWE SmackDown 2020

Video
ID : WWE
Format : AVC
Format/Info :
Codec ID : WWE SmackDown 2020
Duration : 1 h 27 min
Bit rate mode : Variable
Bit rate : 10.7 Mb/s
Maximum bit rate : 12.0 Mb/s
Width : 1 280 pixels
Height : 720 pixels
Display aspect ratio : 16:9
Frame rate mode : Variable
Frame rate : 59.940 FPS
Color space : YUV
Chroma subsampling : 4:2:0
Bit depth : 8 bits
Scan type : Progressive
Bits/(Pixel*Frame) : 0.193
Stream size : 6.51 GiB (99%)
Color range : SmackDown 2020 06 12
Color primaries : BT.709
Transfer characteristics : BT.709
Matrix coefficients : BT.709
Codec configuration box : avcC

Audio
ID : 2
Format : AAC LC SBR
Commercial name : HE-AAC
Format settings : Implicit
Codec ID : mp4a-40-2
Duration : 1 h 27 min
Source duration : 1 h 27 min
Bit rate mode : Constant
Bit rate : 62.7 kb/s
Channel(s) : 2 channels
Channel layout : L R
Sampling rate : 48.0 kHz
Frame rate : 23.438 FPS (2048 SPF)
Compression mode : Lossy
Stream size : 39.2 MiB (1%)
Source stream size : 39.2 MiB (1%)
Default : WWE SmackDown 2020
Alternate group : 1

Original iNFo

Title: WEB.h264-HEEL
Released: 2020.06.12
Source: WEB – FOX
Resolution: 1280 x 720 @ 59.940 FPS
Video: H.264 @ 10.7Mb/s
Audio: HE-AAC @ 62 kbps
Size: 6.55 GB
Runtime: 1h 27mn

Download Links SmackDown 2020 06 12 720p HEEL

NitroFlare | RapidGator | ddl | Uploadgig | RockFile | FileUp | FileFox

references

Links: Home PageTVDBIMDB

 348 total views,  1 views today

WWE SmackDown 2020 06 12 720p WEB h264-HEEL

WH : Source OF Wrestling Releases / Home OF WH Releases

Buy Premium or Renew From WH Links to Keep it Alive

About PH.M.H

[Wrestling Best Uploader]

View all posts by PH.M.H →