WWE SmackDown 2020 06 12 1080i HDTV -WH

WWE SmackDown 2020 06 12 1080i HDTV -WH [12.3 GB]

WWE SmackDown 2020 06 12 1080i HDTV -WH

General
Complete name : WWE.SmackDown.2020.06.12.1080i.HDTV-WH.ts
Format : MPEG-TS
File size : 12.3 GiB
Duration : 1 h 58 min
Overall bit rate mode : Variable
Overall bit rate : 14.9 Mb/s

Video
Format : AVC
Codec ID : 27
Duration : 1 h 58 min
Bit rate : 13.0 Mb/s
Width : 1 920 pixels
Height : 1 080 pixels
Display aspect ratio : 16:9
Frame rate : 25.000 FPS
Color space : YUV
Chroma subsampling : 4:2:0
Bit depth : 8 bits
Scan type : Interlaced
Scan order : Top Field First
Bits/(Pixel*Frame) : 0.250
Stream size : 10.8 GiB (87%)
Color range : Limited
Color primaries : BT.709
Transfer characteristics : BT.709
Matrix coefficients : BT.709

Audio #1
ID : 3060 (0xBF4)
Menu ID : 1 (0x1)
Format : MPEG Audio
Codec ID : 3
Duration : 1 h 58 min
Bit rate mode : Constant
Bit rate : 320 kb/s
Channel(s) : 2 channels
Sampling rate : 48.0 kHz
Compression mode : Lossy
Stream size : 272 MiB (2%)
Language : English

Audio #2
ID : 4060 (0xFDC)
Menu ID : 1 (0x1)
Format : MPEG Audio
Codec ID : 3
Duration : 1 h 58 min
Bit rate mode : Constant
Bit rate : 320 kb/s
Channel(s) : 2 channels
Sampling rate : 48.0 kHz
Compression mode : Lossy
Stream size : 272 MiB (2%)
Language : English

Audio #3
ID : 5060 (0x13C4)
Menu ID : 1 (0x1)
Format : MPEG Audio
Codec ID : 3
Duration : 1 h 58 min
Bit rate mode : Constant
Bit rate : 256 kb/s
Channel(s) : 2 channels
Sampling rate : 48.0 kHz
Compression mode : Lossy
Stream size : 217 MiB (2%)
Language : English

Audio #4
ID : 6060 (0x17AC)
Menu ID : 1 (0x1)
Format : MPEG Audio
Codec ID : 3
Duration : 1 h 58 min
Bit rate mode : Constant
Bit rate : 256 kb/s
Channel(s) : 2 channels
Sampling rate : 48.0 kHz
Compression mode : Lossy
Stream size : 217 MiB (2%)
Language : English

WWE SmackDown 2020 06 12 1080i HDTV -WH
WWE SmackDown 2020 06 12 1080i HDTV -WH
WWE SmackDown 2020 06 12 1080i HDTV -WH
WWE SmackDown 2020 06 12 1080i HDTV -WH

 243 total views,  1 views today

WWE SmackDown 2020 06 12 1080i HDTV -WH

WH : Source OF Wrestling Releases / Home OF WH Releases

Buy Premium or Renew From WH Links to Keep it Alive

About PH.M.H

[Wrestling Best Uploader]

View all posts by PH.M.H →

One Comment on “WWE SmackDown 2020 06 12 1080i HDTV -WH”

Leave a Reply

Your email address will not be published. Required fields are marked *