WWE SmackDown 2020 05 08 1080p HDTV x264-Star

WWE SmackDown 2020 05 08 1080p HDTV x264-Star

WWE SmackDown 2020 05 08 1080p HDTV x264-Star

download WWE SmackDown 2020 05 08 1080p HDTV Star

WWE.SmackDown.2020.05.08.1080p.HDTV.x264-Star
Release Info:
Show Name: WWE Friday Night Smackdown
Genre: Wrestling
Release Date: 2020-05-09(UK)
Air Date: 2020-05-08(US)
Source : HDTV
Container: MKV
Video: H.264 AVC, 15.4Mb/s, 25.000fps, 1920×1080, 16:9
Audio: Dolby Digital, AC3, 320kb/s, 48KHz, 5.1ch
Size: 9.48 GiB
Runtime: 1h 28min


General
Complete name : WWE.SmackDown.2020.05.08.1080p.HDTV.x264-Star.mkv
Format : Matroska
Format version : Version 4
File size : 9.48 GiB
Duration : 1 h 28 min
Overall bit rate : 15.4 Mb/s

Video
Format : AVC
Duration : 1 h 28 min
Bit rate : 15.0 Mb/s
Width : 1 920 pixels
Height : 1 080 pixels
Display aspect ratio : 16:9
Frame rate mode : Constant
Frame rate : 25.000 FPS
Color space : YUV
Chroma subsampling : 4:2:0
Bit depth : 8 bits
Scan type : Progressive
Bits/(Pixel*Frame) : 0.289
Stream size : 9.10 GiB (96%)

Audio
ID : 2
Format : AC-3
Format/Info : Audio Coding 3
Commercial name : Dolby Digital
Codec ID : A_AC3
Duration : 1 h 28 min
Bit rate : 320 kb/s
Channel(s) : 6 channels
Channel layout : L R C LFE Ls Rs
Sampling rate : 48.0 kHz
Frame rate : 31.250 FPS (1536 SPF)
Compression mode : Lossy
Stream size : 202 MiB (2%)

Wv

 134 total views,  1 views today

WWE SmackDown 2020 05 08 1080p HDTV x264-Star

Buy Premium or Extend From here to Support WH

About PH.M.H

[Wrestling Best Uploader]

View all posts by PH.M.H

One Comment on “WWE SmackDown 2020 05 08 1080p HDTV x264-Star”

  1. WWE SmackDown 2020 05 08 1080p HDTV x264-Star

    One Link download

    k2s
    k2s.cc/file/7ce8292579985
    nitroflare
    nitroflare.com/view/51F234D7112AD39
    uploadgig
    uploadgig.com/file/download/17092c0bCc4f8c91
    rapidgator
    rapidgator.net/file/5797f27d13cbbe4223830321f16811b2

    5 GB [2 Parts] // iNterchangeable links

    k2s
    k2s.cc/file/dc5836452c9fc
    k2s.cc/file/5a5bbb6c2776b
    nitroflare
    nitroflare.com/view/C6CE23188A10963
    nitroflare.com/view/3D4B7ACC4D9A8A6
    uploadgig
    uploadgig.com/file/download/47F3E886655eceCD
    uploadgig.com/file/download/3f15c6B26A532815
    rapidgator
    rapidgator.net/file/60ad79e4914d6b0ca67b3b6b3d8dad3f
    rapidgator.net/file/b05635e9e1dbc2fdda67ef95603c9121

    2 GB [5 Parts] // iNterchangeable links

    ddl.to
    ddownload.com/ooxiotflzch6
    ddownload.com/prj6pu1vc9uh
    ddownload.com/x40akd88emnc
    ddownload.com/d31cfzx03n8b
    ddownload.com/5mdi3vn37thv
    clicknupload
    clicknupload.co/gt947jth10og
    clicknupload.co/wvsaz57ka7ko
    clicknupload.co/903q7vzbh8qf
    clicknupload.co/3pretlk3uqn0
    clicknupload.co/ijlvmalw1s47
    filefox
    filefox.cc/b61v5zchkaeb
    filefox.cc/3giyuk4bvlak
    filefox.cc/8wnk8bmo93ek
    filefox.cc/xnh5l9hjpyaq
    filefox.cc/ikfr7x4zxpyj
    rockfile
    rockfile.co/8t9s719tgt7s.html
    rockfile.co/itd4g80pgnva.html
    rockfile.co/r7e1iwhhj2mb.html
    rockfile.co/dqpesjw7socv.html
    rockfile.co/9q698zy35bp8.html
    nitroflare
    nitroflare.com/view/52204AC09EF27E5
    nitroflare.com/view/B342970F0416C00
    nitroflare.com/view/C712B9E167492A2
    nitroflare.com/view/67B6C7FE0DB4EE7
    nitroflare.com/view/C4FBFE444B73F44
    rapidgator
    rapidgator.net/file/99b8abb6a8e7994366214a5e423e4d44
    rapidgator.net/file/957090ebd568c4ab5325eb08e9642f96
    rapidgator.net/file/fd481de081a1a82d88a5c7142df2d533
    rapidgator.net/file/52f94be4132d7b727f6092caa5fa080f
    rapidgator.net/file/fa9751f80ba9ae938c454a584edb3997

Leave a Reply

Your email address will not be published. Required fields are marked *