WWE SMACKDOWN 2020 02 07 1080p HDTV x264-WH [7.2 GB]

Spread the love

WWE SMACKDOWN 2020 02 07 1080p HDTV x264-WH [7.2 GB]

WWE SMACKDOWN 2020 02 07 1080p HDTV x264-WH [7.2 GB]

General
Complete name : WWE.SMACKDOWN.2020.02.07.1080p.HDTV.x264-WH.mp4
Format : MPEG-4
Format profile : Base Media
Codec ID : isom
File size : 7.24 GiB
Duration : 1h 24mn
Overall bit rate : 12.2 Mbps
Writing application : Lavf56.15.102

Video
ID : 1
Format settings, ReFrames : 2 frames
Codec ID : avc1
Codec ID/Info : Advanced Video Coding
Duration : 1h 24mn
Bit rate mode : Variable
Bit rate : 12.0 Mbps
Width : 1 920 pixels
Height : 1 080 pixels
Display aspect ratio : 16:9
Frame rate mode : Constant
Frame rate : 29.970 fps
Color space : YUV
Chroma subsampling : 4:2:0
Bit depth : 8 bits
Scan type : Progressive
Bits/(Pixel*Frame) : 0.193
Stream size : 7.14 GiB (99%)
Writing library : x264 core 142
Language : English

Audio
Format profile : LC
Codec ID : 40
Duration : 1h 24mn
Bit rate mode : Variable
Bit rate : 152 Kbps
Maximum bit rate : 320 Kbps
Channel(s) : 2 channels
Channel positions : Front: L R
Sampling rate : 44.1 KHz
Compression mode : Lossy
Stream size : 92.0 MiB (1%)
Language : English

WWE SMACKDOWN 2020 02 07 1080p HDTV x264-WH [7.2 GB]
WWE SMACKDOWN 2020 02 07 1080p HDTV x264-WH [7.2 GB]


WWE SMACKDOWN 2020 02 07 1080p HDTV x264-WH [7.2 GB]

About PH.M.H

[Wrestling Best Uploader]

View all posts by PH.M.H →