WWE Friday Night SmackDown 2020 06 05 HDTV x264-NWCHD / 720p

WWE Friday Night SmackDown 2020 06 05 HDTV x264-NWCHD / 720p
WWE Friday Night SmackDown 2020 06 05 HDTV x264-NWCHD / 720p


WWE Friday Night SmackDown 2020 06 05 HDTV x264-NWCHD

General
Complete name : HDTV x264-NWCHD.mp4
Format : MPEG-4
Format profile : Base Media
Codec ID : isom (isom/iso2/avc1/mp41)
File size : 946 MiB
Duration : 1 h 23 min
Overall bit rate : 1 588 kb/s
Writing application : WWE

Video
ID : WWE
Format : AVC
Codec ID : avc1
Duration : 1 h 23 min
Bit rate : 1 400 kb/s
Width : 704 pixels
Height : 400 pixels
Display aspect ratio : 16:9
Frame rate mode : Variable
Frame rate : 29.970 (30000/1001) FPS
Minimum frame rate : 29.211 FPS
Maximum frame rate : 29.970 FPS
Color space : YUV
Chroma subsampling : 4:2:0
Bit depth : 8 bits
Scan type : Progressive
Bits/(Pixel*Frame) : 0.166
Stream size : 828 MiB (87%)
Color range : Limited
Color primaries : WWE
Transfer characteristics : BT.709
Matrix coefficients : BT.709
Codec configuration box : avcC

Audio
ID : 2
Format : AAC LC
Codec ID : mp4a-40-2
Duration : 1 h 23 min
Bit rate mode : Constant
Bit rate : 192 kb/s
Channel(s) : 2 channels
Channel layout : L R
Sampling rate : 48.0 kHz
Frame rate : 46.875 FPS (1024 SPF)
Compression mode : Lossy
Stream size : 113 MiB (12%)
Title : Stereo
Default : Yes
Alternate group : WWE



Watch online

download links

Check comments PLz

link For WH Vip Users @ wrestling-home.vip
Subscribe At our Vip Service @ wrestling-home.vip
Uploaded by wrestling-home.com

 273 total views,  1 views today

WWE Friday Night SmackDown 2020 06 05 HDTV x264-NWCHD / 720p

WH : Source OF Wrestling Releases / Home OF WH Releases

Buy Premium or Renew From WH Links to Keep it Alive

About PH.M.H

[Wrestling Best Uploader]

View all posts by PH.M.H →