WWE Friday Night SmackDown 2020 05 29 HDTV x264-NWCHD / 720p

WWE Friday Night SmackDown 2020 05 29 HDTV x264-NWCHD / 720p

WWE Friday Night SmackDown 2020 05 29 HDTV x264-NWCHD / 720p

General
Complete name : HDTV.x264-NWCHD.mp4
Format : MPEG-4
Format profile : Base Media / Version 2
Codec ID : mp42 (isom/iso2/avc1/mp41)
File size : 950 MiB
Duration : 1 h 23 min
Overall bit rate mode : Variable
Overall bit rate : 1 600 kb/s

Video
ID : WWE Friday Night SmackDown
Format : AVC
Duration : 1 h 23 min
Bit rate : 1 400 kb/s
Width : 704 pixels
Height : 400 pixels
Display aspect ratio : 16:9
Frame rate mode : Constant
Frame rate : 29.970 (30000/1001) FPS
Color space : YUV
Chroma subsampling : 4:2:0
Bit depth : 8 bits
Scan type : Progressive
Bits/(Pixel*Frame) : 0.166
Stream size : 832 MiB (88%)

Audio
ID : WWE
Format : AAC LC
Format/Info : Advanced Audio Codec Low Complexity
Codec ID : mp4a-40-2
Duration : 1 h 23 min
Bit rate mode : Variable
Bit rate : 192 kb/s
Channel(s) : 2 channels
Channel layout : L R
Sampling rate : 48.0 kHz
Frame rate : 46.875 FPS (1024 SPF)
Compression mode : Lossy
Stream size : 114 MiB (12%)


General
Complete name : 720p.HDTV.x264-NWCHD.mp4
Format : MPEG-4
Format profile : Base Media / Version 2
Codec ID : mp42 (isom/iso2/avc1/mp41)
File size : 2.73 GiB
Duration : 1 h 23 min
Overall bit rate mode : Variable
Overall bit rate : 4 699 kb/s

Video
ID : WWE Friday Night SmackDown
Format : AVC
Duration : 1 h 23 min
Bit rate : 4 500 kb/s
Width : 1 280 pixels
Height : 720 pixels
Display aspect ratio : 16:9
Frame rate mode : Constant
Frame rate : 29.970 (30000/1001) FPS
Color space : YUV
Chroma subsampling : 4:2:0
Bit depth : 8 bits

Audio
ID : Friday Night SmackDown
Format : AAC LC
Codec ID : mp4a-40-2
Duration : 1 h 23 min
Bit rate mode : Variable
Bit rate : 192 kb/s
Channel(s) : 2 channels
Channel layout : L R
Sampling rate : 48.0 kHz
Frame rate : 46.875 FPS (1024 SPF)
Compression mode : Lossy
Stream size : 114 MiB (4%)

download WWE Friday Night SmackDown 2020 05 29

v

 121 total views,  2 views today

WWE Friday Night SmackDown 2020 05 29 HDTV x264-NWCHD / 720p

Buy Premium or Extend From here to Support WH

About PH.M.H

[Wrestling Best Uploader]

View all posts by PH.M.H

2 Comments on “WWE Friday Night SmackDown 2020 05 29 HDTV x264-NWCHD / 720p”

Leave a Reply

Your email address will not be published. Required fields are marked *