WWE Friday Night Smackdown 2019 12 06 1080i HDTV-WH [12.5 GB]

WWE Friday Night Smackdown 2019 12 06 1080i HDTV-WH

WWE Friday Night Smackdown 2019 12 06 1080i HDTV-WH [12.5 GB]

General
Complete name : WWE.Friday.Night.Smackdown.2019.12.06.1080i.HDTV-WH.ts
Format : MPEG-TS
Format/Info : Advanced Video Codec
File size : 12.4 GiB
Duration : 1h 32mn
Overall bit rate : 19.2 Mbps

Video
ID : 4113 (0x1011)
Menu ID : 1 (0x1)
Format : AVC
Format/Info : Advanced Video Codec
Format profile : [email protected]
Format settings, CABAC : Yes
Format settings, ReFrames : 2 frames
Format settings, GOP : M=1, N=15
Codec ID : 27
Duration : 1h 24mn
Bit rate : 17.6 Mbps
Width : 1 920 pixels
Height : 1 080 pixels
Display aspect ratio : 16:9
Frame rate : 29.970 fps
Color space : YUV
Chroma subsampling : 4:2:0
Bit depth : 8 bits
Scan type : MBAFF
Bits/(Pixel*Frame) : 0.283
Stream size : 10.3 GiB (83%)

Audio
ID : 4352 (0x1100)
Menu ID : 1 (0x1)
Format : AC-3
Format/Info : Audio Coding 3
Mode extension : CM (complete main)
Codec ID : 129
Duration : 1h 24mn
Bit rate mode : Constant
Bit rate : 640 Kbps
Channel(s) : 6 channels
Channel positions : Front: L C R, Side: L R, LFE
Sampling rate : 48.0 KHz
Bit depth : 16 bits
Compression mode : Lossy
Stream size : 385 MiB (3%)
Language : English

WWE Friday Night Smackdown 2019 12 06 1080i HDTV-WH [12.5 GB]
WWE Friday Night Smackdown 2019 12 06 1080i HDTV-WH [12.5 GB]
WWE Friday Night Smackdown 2019 12 06 1080i HDTV-WH [12.5 GB]
WWE Friday Night Smackdown 2019 12 06 1080i HDTV-WH [12.5 GB]

SERVER SPECIAL 4 VIP USERS

1fichier

dropapk

earn4files

fileup
fileup.cc/8lgwxfmwotzm

multiup

uptobox

nitroflare
nitroflare.com/view/1C225D2E2F9CD38

 109 total views,  1 views today

WWE Friday Night Smackdown 2019 12 06 1080i HDTV-WH [12.5 GB]

WH : Source OF Wrestling Releases / Home OF WH Releases

Buy Premium or Renew From WH Links to Keep it Alive

About PH.M.H

[Wrestling Best Uploader]

View all posts by PH.M.H →

Leave a Reply

Your email address will not be published. Required fields are marked *