WWE RAW 2020 06 22 1080p HDTV x264-Star

WWE RAW 2020 06 22 1080p HDTV x264-Star

download WWE RAW 2020 06 22 1080p HDTV Star
WWE RAW 2020 06 22 1080p HDTV x264-Star
File inFo

WWE.RAW.2020.06.22.1080p.HDTV.x264-Star
Release Info:
Show Name: WWE Monday Night RAW
Genre: Wrestling
Release Date: 2020-06-23(UK)
Air Date: 2020-06-22(US)
Source : HDTV
Container: MKV
Video: H.264 AVC, 18.7Mb/s, 59,940fps, 1920×1080, 16:9
Audio: Dolby Digital, AC3, 640kb/s, 48KHz, 5.1ch
Size: 17.2 GiB
Runtime: 02h 11min

detailed File inFO

General
Complete name : WWE.RAW.2020.06.22.1080p.HDTV.x264-Star.mkv
Format : Matroska
Format version : Version 4
File size : 17.2 GiB
Duration : 2 h 11 min
Overall bit rate : 18.7 Mb/s
Encoded date : UTC 2020-06-23 11:33:16
Writing application :
Writing library : Lavf58.29.100
ErrorDetectionType : RAW 2020 06 22

Video
ID : RAW 2020 06 22
Format : AVC
Format/Info : Advanced Video Codec
Codec ID : V_MPEG4/ISO/AVC
Duration : 2 h 11 min
Bit rate : 18.0 Mb/s
Width : 1 920 pixels
Height : 1 080 pixels
Display aspect ratio : 16:9
Frame rate mode : Constant
Frame rate : 59.940 (60000/1001) FPS
Color space : YUV
Chroma subsampling : 4:2:0
Bit depth : 8 bits
Scan type : Progressive
Bits/(Pixel*Frame) : 0.145
Stream size : 16.3 GiB (95%)
Default : Yes
Forced : RAW 2020 06 22
Color range : Limited
Color primaries : BT.709
Transfer characteristics : BT.709
Matrix coefficients : RAW 2020 06 22

Audio
ID : RAW 2020 06 22
Format : AC-3
Format/Info : Audio Coding 3
Commercial name : Dolby Digital
Codec ID : A_AC3
Duration : 2 h 11 min
Bit rate mode : Constant
Bit rate : 640 kb/s
Channel(s) : 6 channels
Channel layout : L R C LFE Ls Rs
Sampling rate : 48.0 kHz
Frame rate : 31.250 FPS (1536 SPF)
Compression mode : Lossy
Stream size : 604 MiB (3%)
Title : Surround
Service kind : Complete Main
Default : RAW 2020 06 22
Forced : RAW 2020 06 22

Single download links

Rapidgator // Nitroflare // Uploadgig // ddl // RockFile

References

Info: HOMEPAGETV.comTVDBIMDBWH Site

 355 total views,  1 views today

WWE RAW 2020 06 22 1080p HDTV x264-Star

WH : Source OF Wrestling Releases / Home OF WH Releases

Buy Premium or Renew From WH Links to Keep it Alive

About PH.M.H

[Wrestling Best Uploader]

View all posts by PH.M.H →