WWE Monday Night RAW 2020 07 20 1080i HDTV -WH

WWE Monday Night RAW 2020 07 20 1080i HDTV -WH [21.1 GB]

WWE Monday Night RAW 2020 07 20 1080i

WWE Monday Night RAW 2020 07 20 1080i HDTV -WH
WH Note :
  • Complete WWE FEED containing Black Box at advs time
File information

Complete name : WWE.Monday.Night.RAW.2020.07.20.1080i.HDTV-WH.ts
Format : MPEG-TS
File size : 21.1 GiB
Duration : 3 h 22 min
Overall bit rate mode : Variable
Overall bit rate : 14.9 Mb/s

Video
ID : 2060 (0x80C)
WWE RAW 1080i
Format : AVC
Codec ID : 27
Duration : 3 h 22 min
Bit rate : 13.5 Mb/s
Width : 1 920 pixels
Height : 1 080 pixels
Display aspect ratio : 16:9
Frame rate : 25.000 FPS
Color space : YUV
Chroma subsampling : 4:2:0
Bit depth : 8 bits
Scan type : Interlaced
store method : Separated fields
Scan order : Top Field First
Bits/(Pixel*Frame) : 0.261
Stream size : 19.2 GiB (91%)
Color range : Limited
Color primaries : BT.709
Transfer characteristics : BT.709
Matrix coefficients : BT.709

WWE RAW 1080i
ID : 3060 (0xBF4)
WWE RAW 1080i
Format : MPEG Audio
Codec ID : 3
Duration : 3 h 22 min
Bit rate mode : Constant
Bit rate : 320 kb/s
Channel(s) : 2 channels
Sampling rate : 48.0 kHz
Frame rate : 41.667 FPS (1152 SPF)
Compression mode : Lossy
Stream size : 464 MiB (2%)
Language : English

Audio #2
ID : 4060 (0xFDC)
WWE RAW 1080i
Format : MPEG Audio
Codec ID : 3
Duration : 3 h 22 min
Bit rate mode : Constant
Bit rate : 320 kb/s
Channel(s) : 2 channels
Sampling rate : 48.0 kHz
Frame rate : 41.667 FPS (1152 SPF)
Compression mode : Lossy
Stream size : 464 MiB (2%)
Language : English

Screen Shots
WWE Monday Night RAW 2020 07 20 1080i HDTV -WH
WWE Monday Night RAW 2020 07 20 1080i HDTV -WH
WWE Monday Night RAW 2020 07 20 1080i HDTV -WH
WWE Monday Night RAW 2020 07 20 1080i HDTV -WH
WWE Monday Night RAW 2020 07 20 1080i HDTV -WH
Subscribe to Get this release
WWE Monday Night RAW 2020 07 20 1080i HDTV -WH

references

wrestling homepremium site

 159 total views,  1 views today

WWE Monday Night RAW 2020 07 20 1080i HDTV -WH

WH : Source OF Wrestling Releases / Home OF WH Releases

Buy Premium or Renew From WH Links to Keep it Alive

About PH.M.H

[Wrestling Best Uploader]

View all posts by PH.M.H →

Leave a Reply

Your email address will not be published. Required fields are marked *