WWE Monday Night RAW 2020 06 15 1080p WEB h264-ADMIT

WWE Monday Night RAW 2020 06 15 1080p WEB h264-ADMIT

WWE Monday Night RAW 2020 06 15 1080p WEB h264-ADMIT
1*File info 1
General 
Filename.......: WWE.Monday.Night.RAW.2020.06.15.1080p.WEB.h264-ADMIT.mkv 
FileSize.......: 3.58 GiB 
Duration.......: 2 h 5 min


Video 
Codec..........: AVC [email protected] 
Resolution.....: 1920x1080 
Aspect ratio...: 16:9 
Bit rate.......: 4 000 kb/s 
Frame rate.....: 29.970 fps


Audio 
Channels.......: 2 CH 
Format.........: AAC 
Bit rate.......: 77.5 kb/s
2*File info 2
WWE.Monday.Night.RAW.2020.06.15.1080p.WEB.h264-ADMIT

Date : 2020-06-16 | Duration : 2 h 5 min
Size : 3.58 GiB
Video : 1920x1080 @ 29.970 (30000/1001) FPS / 4 000 kb/s
3*File info 3

General
Complete name : WWE.Monday.Night.RAW.2020.06.15.1080p.WEB.h264-ADMIT.mkv
Format : Matroska
Format version : Version 4
File size : 3.58 GiB
Duration : 2 h 5 min
Overall bit rate : 4 090 kb/s

Video
Format : AVC
Duration : 2 h 5 min
Bit rate : 4 000 kb/s
Width : 1 920 pixels
Height : 1 080 pixels
Display aspect ratio : 16:9
Frame rate mode : Constant
Frame rate : 29.970 (30000/1001) FPS
Color space : YUV
Chroma subsampling : 4:2:0
Bit depth : 8 bits
Scan type : Progressive
Bits/(Pixel*Frame) : 0.064
Stream size : 3.51 GiB (98%)
Writing library : x264 core 152
Language : English
Default : Yes
Forced : Yes

Audio
ID : 2
Format : AAC LC
Duration : 2 h 5 min
Bit rate : 77.5 kb/s
Channel(s) : 2 channels
Channel layout : L R
Sampling rate : 44.1 kHz
Frame rate : 43.066 FPS (1024 SPF)
Compression mode : Lossy
Stream size : 69.5 MiB (2%)
Language : English
Default : Yes
Forced : Yes

download links

Rapidgator // Nitroflare // UploadGiG // More Links

 244 total views,  1 views today

WWE Monday Night RAW 2020 06 15 1080p WEB h264-ADMIT

WH : Source OF Wrestling Releases / Home OF WH Releases

Buy Premium or Renew From WH Links to Keep it Alive

About PH.M.H

[Wrestling Best Uploader]

View all posts by PH.M.H →