WWE Monday Night RAW 2020 06 01 1080p WEB h264-MenInTights

WWE Monday Night RAW 2020 06 01 1080p WEB h264-MenInTights

WWE Monday Night RAW 2020 06 01 1080p WEB h264-MenInTights

General
Complete name : wwe.monday.night.raw.2020.06.01.1080p.web.h264-menintights.mkv
Format : Matroska
Format version : Version 4
File size : 3.61 GiB
Duration : 2 h 5 min
Overall bit rate : 4 120 kb/s

Video
Format : AVC
Duration : 2 h 5 min
Bit rate : 4 000 kb/s
Width : 1 920 pixels
Height : 1 080 pixels
Display aspect ratio : 16:9
Frame rate mode : Constant
Frame rate : 29.970 (30000/1001) FPS
Color space : YUV
Chroma subsampling : 4:2:0
Bit depth : 8 bits
Scan type : Progressive
Bits/(Pixel*Frame) : 0.064
Stream size : 3.54 GiB (98%)

Audio
ID : 2
Duration : 2 h 5 min
Bit rate : 77.6 kb/s
Channel(s) : 2 channels
Channel layout : L R
Sampling rate : 44.1 kHz
Frame rate : 43.066 FPS (1024 SPF)
Compression mode : Lossy
Stream size : 69.7 MiB (2%)
Default : Yes
Forced : No

 200 total views,  1 views today

WWE Monday Night RAW 2020 06 01 1080p WEB h264-MenInTights

WH : Source OF Wrestling Releases / Home OF WH Releases

Buy Premium or Renew From WH Links to Keep it Alive

About PH.M.H

[Wrestling Best Uploader]

View all posts by PH.M.H →

One Comment on “WWE Monday Night RAW 2020 06 01 1080p WEB h264-MenInTights”

Leave a Reply

Your email address will not be published. Required fields are marked *