WWE Monday Night Raw 2020 03 23 1080i HDTV -WH [20 GB]

Spread the love

WWE Monday Night Raw 2020 03 23 1080i HDTV -WH [20 GB]

WWE Monday Night Raw 2020 03 23 1080i HDTV -WH [20 GB]

Source iS Satellite Feed

General
Complete name : WWE.Monday.Night.Raw.2020.03.23.1080i.HDTV-WH.ts
Format : MPEG-TS
File size : 19.7 GiB
Duration : 3 h 4 min
Overall bit rate mode : Variable
Overall bit rate : 15.3 Mb/s

Video
Codec ID : 27
Duration : 2 h 4 min
Bit rate : 13.9 Mb/s
Width : 1 920 pixels
Height : 1 080 pixels
Display aspect ratio : 16:9
Frame rate : 25.000 FPS
Color space : YUV
Chroma subsampling : 4:2:0
Bit depth : 8 bits
Scan type : Interlaced
Scan order : Top Field First
Bits/(Pixel*Frame) : 0.269
Stream size : 12.1 GiB (61%)
Color range : Limited
Color primaries : BT.709
Transfer characteristics : BT.709
Matrix coefficients : BT.709

Audio #1
Codec ID : 3
Duration : 3 h 4 min
Bit rate mode : Constant
Bit rate : 320 kb/s
Channel(s) : 2 channels
Sampling rate : 48.0 kHz
Compression mode : Lossy
Stream size : 421 MiB (2%)
Language : English

Audio #2
Menu ID : 1 (0x1)
Codec ID : 3
Duration : 3 h 4 min
Bit rate mode : Constant
Bit rate : 320 kb/s
Channel(s) : 2 channels
Sampling rate : 48.0 kHz
Compression mode : Lossy
Stream size : 421 MiB (2%)
Language : English

WWE Monday Night Raw 2020 03 23 1080i HDTV -WH [20 GB]
WWE Monday Night Raw 2020 03 23 1080i HDTV -WH [20 GB]
WWE Monday Night Raw 2020 03 23 1080i HDTV -WH [20 GB]

wv

WWE Monday Night Raw 2020 03 23 1080i HDTV -WH [20 GB]

Buy Premium or Extend From here to Support WH

WWE Monday Night Raw 2020 03 23 1080i HDTV -WH [20 GB]

About PH.M.H

[Wrestling Best Uploader]

View all posts by PH.M.H

One Comment on “WWE Monday Night Raw 2020 03 23 1080i HDTV -WH [20 GB]”

Leave a Reply

Your email address will not be published. Required fields are marked *