WWE Monday Night Raw 2020 02 10 1080p HDTV x264 -WH

Spread the love

WWE Monday Night Raw 2020 02 10 1080p HDTV x264 -WH

WWE Monday Night Raw 2020 02 10 1080p HDTV x264 -WH

General
Complete name : WWEMonday. Night.Raw.2020 02.10. 1080p.HDTV.x264 -WH.mp4
Format : MPEG-4
Format profile : Base Media
Codec ID : isom
File size : 11.4 GiB
Duration : 2h 11mn
Overall bit rate : 12.3 Mbps
Writing application : Lavf56.15.102

Video
ID : 1
Format : AVC
Format/Info : Advanced Video Codec
Format profile : [email protected]
Format settings, CABAC : No
Format settings, ReFrames : 2 frames
Codec ID : avc1
Duration : 2h 11mn
Bit rate mode : Variable
Bit rate : 12.0 Mbps
Width : 1 920 pixels
Height : 1 080 pixels
Display aspect ratio : 16:9
Frame rate mode : Constant
Frame rate : 29.970 fps
Color space : YUV
Chroma subsampling : 4:2:0
Bit depth : 8 bits
Scan type : Progressive
Bits/(Pixel*Frame) : 0.193
Stream size : 11.1 GiB (97%)
Writing library : x264 core 142
Language : English

Audio
ID : 2
Format : AAC
Format/Info : Advanced Audio Codec
Format profile : LC
Codec ID : 40
Duration : 2h 11mn
Bit rate mode : Constant
Bit rate : 320 Kbps
Channel(s) : 6 channels
Channel positions : Front: L C R, Side: L R, LFE
Sampling rate : 48.0 KHz
Compression mode : Lossy
Stream size : 302 MiB (3%)
Language : English

WWE Monday Night Raw 2020 02 10 1080p HDTV x264 -WH
WWE Monday Night Raw 2020 02 10 1080p HDTV x264 -WH
WWE Monday Night Raw 2020 02 10 1080p HDTV x264 -WH
WWE Monday Night Raw 2020 02 10 1080p HDTV x264 -WH

About PH.M.H

[Wrestling Best Uploader]

View all posts by PH.M.H →