WWE Monday Night Raw 2019 12 02 1080p 12000KBS HDTV x264-WH [11 GB]

WWE Monday Night Raw 2019 12 02 1080p 12000KBS HDTV x264-WH [11 GB]

WWE Monday Night Raw 2019 12 02 1080p 12000KBS HDTV x264-WH [11 GB]
DescriptionWWE.Monday.Night.Raw.2019.12.02.1080p.12000KBS.HDTV.x264-WH

General
Format                          : MPEG-4
Format profile                  : Base Media
Codec ID                        : isom
File size                        : 10.9 GiB
Duration                        : 2h 6mn
Overall bit rate                : 12.3 Mbps
Writing application              : Lavf56.15.102

Video
ID                              : 1
Format                          : AVC
Format/Info                      : Advanced Video Codec
Format profile                  : [email protected]
Format settings, CABAC          : No
Format settings, ReFrames        : 2 frames
Codec ID                        : avc1
Codec ID/Info                    : Advanced Video Coding
Duration                        : 2h 6mn
Bit rate mode                    : Variable
Bit rate                        : 12.0 Mbps
Width                            : 1 920 pixels
Height                          : 1 080 pixels
Display aspect ratio            : 16:9
Frame rate mode                  : Constant
Frame rate                      : 29.970 fps
Color space                      : YUV
Chroma subsampling              : 4:2:0
Bit depth                        : 8 bits
Scan type                        : Progressive
Bits/(Pixel*Frame)              : 0.193
Stream size                      : 10.6 GiB (97%)
Writing library                  : x264 core 142

Audio
ID                              : 2
Format                          : AAC
Format/Info                      : Advanced Audio Codec
Format profile                  : LC
Codec ID                        : 40
Duration                        : 2h 6mn
Bit rate mode                    : Constant
Bit rate                        : 320 Kbps
Channel(s)                      : 6 channels
Channel positions                : Front: L C R, Side: L R, LFE
Sampling rate                    : 44.1 KHz
Compression mode                : Lossy
Stream size                      : 289 MiB (3%)
Language                        : English
WWE Monday Night Raw 2019 12 02 1080p 12000KBS HDTV x264-WH [11 GB]
WWE Monday Night Raw 2019 12 02 1080p 12000KBS HDTV x264-WH [11 GB]
WWE Monday Night Raw 2019 12 02 1080p 12000KBS HDTV x264-WH [11 GB]

nitroflare
nitroflare.com/view/DA8B4A3084AE5AC

fileup
fileup.cc/oy58dcjqi8lz

rapidgator
rapidgator.net/file/cf25f478d910882c2aa5d43edfccd2c9

uploadgig
uploadgig.com/file/download/6f5693810043459f

dropapk
dropapk.to/0xfotzh39uio
dropapk.to/v2fjdcairek5
dropapk.to/7bsiktxsppo0
dropapk.to/pi01q4uvtv8n
dropapk.to/4mpo7f4zqyks
dropapk.to/3pney5z82x55
dropapk.to/cmi3zx2cl06d
dropapk.to/23muay9manpi
dropapk.to/j2439ga4sf96
dropapk.to/cakj7qivkpvv
dropapk.to/6pge4jidx9f7

ddl.to
ddl.to/8n2u947a7ygu
ddl.to/vnaaiv62687a
ddl.to/t3tnau407tvt
ddl.to/82pztd4ow70c
ddl.to/zsmsvjhjm7nx
ddl.to/p2quxexwfrpm
ddl.to/szz5rg0ngizm
ddl.to/am1uq3t4fifp
ddl.to/ilk953h8ieh2
ddl.to/puoa9p74dh3z
ddl.to/0v8z9usrap19

rockfile
rockfile.co/dpmcuiupi29u.html
rockfile.co/lw04xtwmbtzl.html
rockfile.co/7lty0sxhmjb5.html
rockfile.co/715f11582o5k.html
rockfile.co/8uj4fdjeibjg.html
rockfile.co/jwlbkmdp5a54.html
rockfile.co/f2rzc60uxxc3.html
rockfile.co/o5ds8olritas.html
rockfile.co/c6tpvexsem84.html
rockfile.co/oo8sl3rj34c5.html
rockfile.co/nmlte96z33yw.html

katfile
katfile.com/psnj8720lzsm
katfile.com/z9n83ty96a3m
katfile.com/vh3mtihtlf3g
katfile.com/1lz6qeg7xaa7
katfile.com/x7aha5ck198w
katfile.com/07sndmk4mvjs
katfile.com/j4mdjx4tllt9
katfile.com/73svs6cphnip
katfile.com/ghebskjbe3xd
katfile.com/eq5e4lghhn9l
katfile.com/q6ns6wen2x2p

nitroflare
nitroflare.com/view/DB65C58087BA73A
nitroflare.com/view/C2AE8BCF6F8695B
nitroflare.com/view/9F13EC30E513E2C
nitroflare.com/view/633116CB07A2C6E
nitroflare.com/view/DBE06178B014146
nitroflare.com/view/A8FE21279AD37E2
nitroflare.com/view/520DCBB5688802A
nitroflare.com/view/86930765D077F2E
nitroflare.com/view/C1FB1C94A3BCACF
nitroflare.com/view/A8E1D1457E5B7D5
nitroflare.com/view/8F2E79B63D0C1FE

 34 total views,  1 views today

WWE Monday Night Raw 2019 12 02 1080p 12000KBS HDTV x264-WH [11 GB]

Buy Premium or Extend From here to Support WH

About PH.M.H

[Wrestling Best Uploader]

View all posts by PH.M.H

5 Comments on “WWE Monday Night Raw 2019 12 02 1080p 12000KBS HDTV x264-WH [11 GB]”

  1. Thanks for this info,

    since I can not download the best version (1080i) I became curious about this 12000k version.
    Or now wait for 1080p -Star release? I don’t really know…

    Normally I would take both to compare them, but I currently have so many shows to download!
    Thanks to a great site called “wrestling-home” 😀

  2. 1080p star was uploaded , i will be faster thank him on 1080i and both 1080p versions
    the main deffirence is his video fps 60 and my own’s 29.97 fps but u will take marvellous qualities
    very very very earlier than his releases , have a fun and u can compare no problem sir

Leave a Reply

Your email address will not be published. Required fields are marked *