WWE Monday Night Raw 2019 12 02 1080i HDTV -WH [18.5 GB]

WWE Monday Night Raw 2019 12 02 1080i HDTV -WH [18.5 GB]

WWE Monday Night Raw 2019 12 02 1080i HDTV -WH [18.5 GB]

General
Complete name : WWE.Monday.Night.Raw.2019.12.02.1080i.HDTV-WH.ts
Format : MPEG-TS
Format/Info : Advanced Video Codec
File size : 18.6 GiB
Duration : 2h 19mn
Overall bit rate : 19.2 Mbps

Video
ID : 4113 (0x1011)
Menu ID : 1 (0x1)
Format : AVC
Format/Info : Advanced Video Codec
Format profile : [email protected]
Format settings, CABAC : Yes
Format settings, ReFrames : 2 frames
Format settings, GOP : M=1, N=15
Codec ID : 27
Duration : 2h 6mn
Bit rate : 17.6 Mbps
Width : 1 920 pixels
Height : 1 080 pixels
Display aspect ratio : 16:9
Frame rate : 29.970 fps
Color space : YUV
Chroma subsampling : 4:2:0
Bit depth : 8 bits
Scan type : MBAFF
Bits/(Pixel*Frame) : 0.283
Stream size : 15.5 GiB (83%)

Audio
ID : 4352 (0x1100)
Menu ID : 1 (0x1)
Format : AC-3
Format/Info : Audio Coding 3
Mode extension : CM (complete main)
Codec ID : 129
Duration : 2h 6mn
Bit rate mode : Constant
Bit rate : 640 Kbps
Channel(s) : 6 channels
Channel positions : Front: L C R, Side: L R, LFE
Sampling rate : 48.0 KHz
Bit depth : 16 bits
Compression mode : Lossy
Stream size : 578 MiB (3%)
Language : English

WWE Monday Night Raw 2019 12 02 1080i HDTV -WH [18.5 GB]
WWE Monday Night Raw 2019 12 02 1080i HDTV -WH [18.5 GB]
WWE Monday Night Raw 2019 12 02 1080i HDTV -WH [18.5 GB]
WWE Monday Night Raw 2019 12 02 1080i HDTV -WH [18.5 GB]
WWE Monday Night Raw 2019 12 02 1080i HDTV -WH [18.5 GB]
WWE Monday Night Raw 2019 12 02 1080i HDTV -WH [18.5 GB]
WWE Monday Night Raw 2019 12 02 1080i HDTV -WH [18.5 GB]

wrestling-home.vip/2019/12/03/wwe-monday-night-raw-2019-12-02-1080i-hdtv-wh-18-5-gb/
WWE Monday Night Raw 2019 12 02 1080i HDTV -WH [18.5 GB]

ONE LINK dOWNLOAD

Vip Special Server

multiup

uptobox

fileup
fileup.cc/xyw7xh5pj9f9

1fichier

earn4files

nitroflare
nitroflare.com/view/89B1BC042FFD4F0

rapidgator
rapidgator.net/file/7d5f4dadd969faa4d0698a6fd46f9c51

5 GB [4 PARTS] // INTERCHANGEABLE LINKS

1fichier

dl.free.fr

uptobox

rapidgator
rapidgator.net/file/471e032c312b4bc7fa6e9da1e3669c8b
rapidgator.net/file/c1cbb785c33426b79329cf1a3b90a25b
rapidgator.net/file/6f36f7aa4a7474f70ae7b0deb8888a20
rapidgator.net/file/b106eea7851a562435888ed57559d475

nitroflare
nitroflare.com/view/2E01754C1B06881
nitroflare.com/view/F5F731D73A4A164
nitroflare.com/view/1F201A45D977394
nitroflare.com/view/2CFEC8E2DEDA4A7

dropapk

fileup
fileup.cc/2i19x8qrs2w7
fileup.cc/5puv2ifhkx1y
fileup.cc/iqbdtpecpv1a
fileup.cc/yq6vpj6uiooq

uploadgig
uploadgig.com/file/download/Be09f9adf45da3ec
uploadgig.com/file/download/c44168815466e51b
uploadgig.com/file/download/4dAc7c9Bb42f61a0
uploadgig.com/file/download/7d9Da7fc8feDe6b7

 96 total views,  2 views today

WWE Monday Night Raw 2019 12 02 1080i HDTV -WH [18.5 GB]

Buy Premium or Extend From here to Support WH

About PH.M.H

[Wrestling Best Uploader]

View all posts by PH.M.H

One Comment on “WWE Monday Night Raw 2019 12 02 1080i HDTV -WH [18.5 GB]”

Leave a Reply

Your email address will not be published. Required fields are marked *