WWE Monday Night RAW 2019 09 09 720p HDTV x264-ACES

Spread the love

WWE Monday Night RAW 2019 09 09 720p HDTV x264-ACES

WWE Monday Night RAW 2019 09 09 720p HDTV

WWE Monday Night RAW 2019 09 09 720p HDTV x264-ACES

General
WWE.Monday.Night.RAW.2019.09.09.720p.HDTV.x264-ACES.mkv
Format : Matroska
File size : 3.97 GiB
Duration : 2h 7mn
Overall bit rate : 4 444 Kbps
Movie name : WWE Monday Night RAW 2019 09 09
Writing application : no variable data
Writing library : no variable data

Video
ID : 1
Format : AVC
Format/Info : Advanced Video Codec
Format profile : [email protected]
Format settings, CABAC : Yes
Format settings, ReFrames : 5 frames
Format settings, GOP : M=1, N=3
Codec ID : V_MPEG4/ISO/AVC
Duration : 2h 7mn
Bit rate : 4 035 Kbps
Width : 1 280 pixels
Height : 720 pixels
Display aspect ratio : 16:9
Frame rate : 50.000 fps
Color space : YUV
Chroma subsampling : 4:2:0
Bit depth : 8 bits
Scan type : Progressive
Bits/(Pixel*Frame) : 0.088
Stream size : 3.60 GiB (91%)
Writing library : x264 core 158 r2984 3759fcb
Language : English

Audio
ID : 2
Format : MPEG Audio
Format version : Version 1
Format profile : Layer 2
Codec ID : A_MPEG/L2
Codec ID/Hint : MP2
Duration : 2h 7mn
Bit rate mode : Constant
Bit rate : 320 Kbps
Channel(s) : 2 channels
Sampling rate : 48.0 KHz
Compression mode : Lossy
Stream size : 293 MiB (7%)
Language : English

WWE Monday Night RAW 2019 09 09 720p HDTV x264-ACES
WWE Monday Night RAW 2019 09 09 720p HDTV x264-ACES
WWE Monday Night RAW 2019 09 09 720p HDTV x264-ACES
WWE Monday Night RAW 2019 09 09 720p HDTV x264-ACES
WWE Monday Night RAW 2019 09 09 720p HDTV x264-ACES
WWE Monday Night RAW 2019 09 09 720p HDTV x264-ACES
WWE Monday Night RAW 2019 09 09 720p HDTV x264-ACES

4downfiles
4downfiles.org/5n4n5hmp49cw
fileup
fileup.cc/9pm1tgpxs25g
nitroflare
nitroflare.com/view/27DD842A16855CB
rapidgator
rapidgator.net/file/435afcbd29e27fcedc11f3f522681169

About PH.M.H

[Wrestling Best Uploader]

View all posts by PH.M.H →

One Comment on “WWE Monday Night RAW 2019 09 09 720p HDTV x264-ACES”

Leave a Reply

Your email address will not be published. Required fields are marked *