WWE SummerSlam 2019 1080i HDTV H.264-TrollHD [35 GB]

Spread the love

WWE SummerSlam 2019 1080i HDTV H.264-TrollHD [35 GB]

dOWNLOAD WWE SummerSlam 2019 1080i HDTV

WWE SummerSlam 2019 1080i HDTV H.264-TrollHD [35 GB]

Language : English
Language : Spanish
Language : French
Language : Hindi
Language : Portuguese
Language : German
Language : Russian
Language : Japanese

#General 
Complete name                            : WWE SummerSlam (2019) 1080i HDTV Backhaul MPA2.0 H.264-TrollHD.mkv 
Format                                  : Matroska 
Format version                          : Version 4 
File size                                : 34.8 GiB 
Duration                                : 3 h 30 min 
Overall bit rate                        : 23.7 Mb/s 
Encoded date                            : UTC 2019-08-13 01:47:27 
Writing application                      : mkvmerge v35.0.0 (‘All The Love In The World’) 64-bit 
Writing library                          : libebml v1.3.9 + libmatroska v1.5.2 

Video 
ID                                      : 1 
Format                                  : AVC 
Format/Info                              : Advanced Video Codec 
Format profile                          : High 4:2:[email protected] 
Format settings                          : CABAC / 4 Ref Frames 
Format settings, CABAC                  : Yes 
Format settings, RefFrames              : 4 frames 
Codec ID                                : V_MPEG4/ISO/AVC 
Duration                                : 3 h 30 min 
Bit rate                                : 21.5 Mb/s 
Width                                    : 1 920 pixels 
Height                                  : 1 080 pixels 
Display aspect ratio                    : 16:9 
Frame rate mode                          : Variable 
Frame rate                              : 59.940 (59940/1000) FPS 
Original frame rate                      : 29.970 (30000/1001) FPS 
Color space                              : YUV 
Chroma subsampling                      : 4:2:2 
Bit depth                                : 8 bits 
Scan type                                : Interlaced 
Scan type, store method                  : Separated fields 
Scan order                              : Top Field First 
Bits/(Pixel*Frame)                      : 0.173 
Stream size                              : 31.6 GiB (91%) 
Default                                  : Yes 
Forced                                  : No 
Color range                              : Limited 
Color primaries                          : BT.709 
Transfer characteristics                : BT.709 
Matrix coefficients                      : BT.709 

Audio #1 
ID                                      : 2 
Format                                  : MPEG Audio 
Format version                          : Version 1 
Format profile                          : Layer 2 
Codec ID                                : A_MPEG/L2 
Codec ID/Hint                            : MP2 
Duration                                : 3 h 30 min 
Bit rate mode                            : Constant 
Bit rate                                : 384 kb/s 
Channel(s)                              : 2 channels 
Sampling rate                            : 48.0 kHz 
Frame rate                              : 41.667 FPS (1152 SPF) 
Compression mode                        : Lossy 
Stream size                              : 577 MiB (2%) 
Language                                : English 
Default                                  : Yes 
Forced                                  : No 

Audio #2 
ID                                      : 3 
Format                                  : MPEG Audio 
Format version                          : Version 1 
Format profile                          : Layer 2 
Codec ID                                : A_MPEG/L2 
Codec ID/Hint                            : MP2 
Duration                                : 3 h 30 min 
Bit rate mode                            : Constant 
Bit rate                                : 256 kb/s 
Channel(s)                              : 2 channels 
Sampling rate                            : 48.0 kHz 
Frame rate                              : 41.667 FPS (1152 SPF) 
Compression mode                        : Lossy 
Stream size                              : 385 MiB (1%) 
Language                                : Spanish 
Default                                  : No 
Forced                                  : No 

Audio #3 
ID                                      : 4 
Format                                  : MPEG Audio 
Format version                          : Version 1 
Format profile                          : Layer 2 
Codec ID                                : A_MPEG/L2 
Codec ID/Hint                            : MP2 
Duration                                : 3 h 30 min 
Bit rate mode                            : Constant 
Bit rate                                : 256 kb/s 
Channel(s)                              : 2 channels 
Sampling rate                            : 48.0 kHz 
Frame rate                              : 41.667 FPS (1152 SPF) 
Compression mode                        : Lossy 
Stream size                              : 385 MiB (1%) 
Language                                : French 
Default                                  : No 
Forced                                  : No 

Audio #4 
ID                                      : 5 
Format                                  : MPEG Audio 
Format version                          : Version 1 
Format profile                          : Layer 2 
Codec ID                                : A_MPEG/L2 
Codec ID/Hint                            : MP2 
Duration                                : 3 h 30 min 
Bit rate mode                            : Constant 
Bit rate                                : 256 kb/s 
Channel(s)                              : 2 channels 
Sampling rate                            : 48.0 kHz 
Frame rate                              : 41.667 FPS (1152 SPF) 
Compression mode                        : Lossy 
Stream size                              : 385 MiB (1%) 
Language                                : Hindi 
Default                                  : No 
Forced                                  : No 

Audio #5 
ID                                      : 6 
Format                                  : MPEG Audio 
Format version                          : Version 1 
Format profile                          : Layer 2 
Codec ID                                : A_MPEG/L2 
Codec ID/Hint                            : MP2 
Duration                                : 3 h 30 min 
Bit rate mode                            : Constant 
Bit rate                                : 256 kb/s 
Channel(s)                              : 2 channels 
Sampling rate                            : 48.0 kHz 
Frame rate                              : 41.667 FPS (1152 SPF) 
Compression mode                        : Lossy 
Stream size                              : 385 MiB (1%) 
Language                                : Portuguese 
Default                                  : No 
Forced                                  : No 

Audio #6 
ID                                      : 7 
Format                                  : MPEG Audio 
Format version                          : Version 1 
Format profile                          : Layer 2 
Codec ID                                : A_MPEG/L2 
Codec ID/Hint                            : MP2 
Duration                                : 3 h 30 min 
Bit rate mode                            : Constant 
Bit rate                                : 256 kb/s 
Channel(s)                              : 2 channels 
Sampling rate                            : 48.0 kHz 
Frame rate                              : 41.667 FPS (1152 SPF) 
Compression mode                        : Lossy 
Stream size                              : 385 MiB (1%) 
Language                                : German 
Default                                  : No 
Forced                                  : No 

Audio #7 
ID                                      : 8 
Format                                  : MPEG Audio 
Format version                          : Version 1 
Format profile                          : Layer 2 
Codec ID                                : A_MPEG/L2 
Codec ID/Hint                            : MP2 
Duration                                : 3 h 30 min 
Bit rate mode                            : Constant 
Bit rate                                : 256 kb/s 
Channel(s)                              : 2 channels 
Sampling rate                            : 48.0 kHz 
Frame rate                              : 41.667 FPS (1152 SPF) 
Compression mode                        : Lossy 
Stream size                              : 385 MiB (1%) 
Language                                : Russian 
Default                                  : No 
Forced                                  : No 

Audio #8 
ID                                      : 9 
Format                                  : MPEG Audio 
Format version                          : Version 1 
Format profile                          : Layer 2 
Codec ID                                : A_MPEG/L2 
Codec ID/Hint                            : MP2 
Duration                                : 3 h 30 min 
Bit rate mode                            : Constant 
Bit rate                                : 256 kb/s 
Channel(s)                              : 2 channels 
Sampling rate                            : 48.0 kHz 
Frame rate                              : 41.667 FPS (1152 SPF) 
Compression mode                        : Lossy 
Stream size                              : 385 MiB (1%) 
Language                                : Japanese 
Default                                  : No 
Forced                                  : No 
Size34.77 GB
WWE SummerSlam 2019 1080i HDTV H.264-TrollHD [35 GB]

ONE LINK DOWNLOAD

rapidgator

rapidgator.net/file/56b8e09d295ef2f98550e2c777a5565d

multiup [ 1fichier / Uptobox ]

multiup.org/en/mirror/0cfa408e1b04834bb4b751799d33626d

10 GB [4 PARTS] // INTERCHANGEABLE LINKS

nitroflare

nitroflare.com/view/B2E7E8804FB98C9
nitroflare.com/view/675F8973F343BDD
nitroflare.com/view/3C1B6FF2DB1A23D
nitroflare.com/view/3BFB4C1A4C89F49

4downfiles

4downfiles.org/7vn88vwga38z
4downfiles.org/2qosajwkhbry
4downfiles.org/1letzx8zb2hx
4downfiles.org/q944wlz88nmr

fileup
fileup.cc/f9fuj3axavot
fileup.cc/d53vvxdffmvc
fileup.cc/z8bub1zrmajk
fileup.cc/593ehoiwzs9a

rapidgator
rapidgator.net/file/dc35d27a7c66fcfe51b5bd82ab5cd9c6
rapidgator.net/file/dc04807166e19c82b47b6767aa68b6a3
rapidgator.net/file/228cfd61d8d7757086202608a4bcdef2
rapidgator.net/file/7f3987e922b0e5c439975753f606a4aa

uploadgig
uploadgig.com/file/download/b3035FE8dAb1a13f
uploadgig.com/file/download/b94622e3d16bE46c
uploadgig.com/file/download/3bd6ACF4eC80c5e7
uploadgig.com/file/download/35108b6D54bf17D0

5 GB [7 PARTS] // INTERCHANGEABLE LINKS

4downfiles

4downfiles.org/thdvk936l44s
4downfiles.org/9rch3vt5dh1f
4downfiles.org/6hj9uzbde1lu
4downfiles.org/qh0adw4ws180
4downfiles.org/z2mtf2msk3kp
4downfiles.org/sdes6ifqyrph
4downfiles.org/iias9p01aeh8

fileup

fileup.cc/d9yjpdo5ptpy
fileup.cc/dcxx3fkbeqwf
fileup.cc/qbzhqku89418
fileup.cc/bsfahqukh36v
fileup.cc/rycs6u05r0fk
fileup.cc/plxtp2gljk1n
fileup.cc/dno6o0mq63bq

nitroflare

nitroflare.com/view/4BF5967F0F8993D
nitroflare.com/view/A00AF9E1C52B371
nitroflare.com/view/C924F22378FA5D0
nitroflare.com/view/F2AA5F802D47DD5
nitroflare.com/view/811C24FD3FA94CE
nitroflare.com/view/75791D3D592C6CB
nitroflare.com/view/04F50EB4DC44C4F

rapidgator
rapidgator.net/file/efbbbec285b03df07455e6cc345c20c2
rapidgator.net/file/1f748d63e27f1ff42048d06838d762f7
rapidgator.net/file/5e42294fedb8b69756a02c66857c50ad
rapidgator.net/file/690056d0eb5d03cc0ef2ec6fd49791ff
rapidgator.net/file/e114b45e6b243f9f4520d5e79a0197a4
rapidgator.net/file/4c9bd4012cf6dffdf030191f413e0046
rapidgator.net/file/01aaa84daba15bf88d6b87ca8d857758

uploadgig

uploadgig.com/file/download/E273e861a03c4040
uploadgig.com/file/download/4421C90989fa4070
uploadgig.com/file/download/1c793028BA1c85d6
uploadgig.com/file/download/2957e87fAca1CCf2
uploadgig.com/file/download/30bb8008a6b5ccc8
uploadgig.com/file/download/DE32fc306409c48E
uploadgig.com/file/download/b58C5F34905E77bE

6 Comments on “WWE SummerSlam 2019 1080i HDTV H.264-TrollHD [35 GB]”

  1. Damn that was a great release.
    Thanks a lot for the release. Wish I had some money to donate.
    Keep spreading the love.
    Cheers.

Leave a Reply

Your email address will not be published. Required fields are marked *