WWE Stomping Grounds 2019 PPV WEB h264-HEEL

WWE Stomping Grounds 2019 PPV WEB h264-HEEL

DOWNLOAD WWE Stomping Grounds 2019 PPV FULL EVENT FREE HOSTS

WWE Stomping Grounds 2019 PPV WEB h264-HEEL

WWE Stomping Grounds 2019 PPV WEB h264-HEEL

WWE Champion Kofi Kingston battles Dolph Ziggler in a Steel Cage Match. Also Becky Lynch defends the Raw Women’s Title against Lacey Evans.

Title: WWE.Stomping.Grounds.2019.PPV.WEB.h264-HEEL
Released: 2019.06.23
Source: WWE Network
Resolution: 896 x 504 @ 29.970 FPS
Video: H.264 @ 1800 kbps
Audio: AAC @ 96 kbps
Size: 2.48 GB
Runtime: 3h 17mn

General
Complete name : WWE.Stomping.Grounds.2019.PPV.WEB.h264-HEEL.mp4
Format : MPEG-4
Format profile : Base Media
Codec ID : isom (isom/iso2/avc1/mp41)
File size : 2.49 GiB
Duration : 3 h 17 min
Overall bit rate mode : Variable
Overall bit rate : 1 804 kb/s
Writing application : Lavf58.27.103

Video
ID : 1
Format : AVC
Format/Info : Advanced Video Codec
Format profile : [email protected]
Format settings : CABAC / 4 Ref Frames
Format settings, CABAC : Yes
Format settings, Reference : 4 frames
Codec ID : avc1
Codec ID/Info : Advanced Video Coding
Duration : 3 h 17 min
Duration_FirstFrame : 6 ms
Bit rate mode : Constant
Bit rate : 1 704 kb/s
Width : 896 pixels
Height : 504 pixels
Display aspect ratio : 16:9
Frame rate mode : Constant
Frame rate : 29.970 (30000/1001) FPS
Color space : YUV
Chroma subsampling : 4:2:0
Bit depth : 8 bits
Scan type : Progressive
Bits/(Pixel*Frame) : 0.126
Stream size : 2.35 GiB (94%)
Codec configuration box : avcC

Audio
ID : 2
Format : AAC LC
Format/Info : Advanced Audio Codec Low Complexity
Codec ID : mp4a-40-2
Duration : 3 h 17 min
Bit rate mode : Variable
Bit rate : 93.5 kb/s
Maximum bit rate : 96.0 kb/s
Channel(s) : 2 channels
Channel layout : L R
Sampling rate : 48.0 kHz
Frame rate : 46.875 FPS (1024 SPF)
Compression mode : Lossy
Stream size : 132 MiB (5%)
Language : English
Default : Yes
Alternate group : 1

Text
ID : 1-CC1
Format : EIA-608
Muxing mode : SCTE 128 / DTVCC Transport
Muxing mode, more info : Muxed in Video #1
Duration : 3 h 17 min
Bit rate mode : Constant
Stream size : 0.00 Byte (0%)
Encoded stream size : 0.00 Byte (0%)
CaptionServiceName : CC1

WWE Stomping Grounds 2019 PPV WEB h264-HEEL

1fichier.com/?nq67njjng1mk2hek7eev
dl.free.fr/fdtL1hjoP
www.filefactory.com/file/3y9wf0q5xh6l
multiup.org/download/ed3529b9d134c33ef3f2218f7d2bacf8
turbobit.net/khvk2t0few0r.html
uptobox.com/9y0zu0y73d7c

anonfile.com/Yco4x3w8n7
bayfiles.com/Neoaxdwen4
file.bz/Vaobxew0nc

 112 total views,  1 views today

WWE Stomping Grounds 2019 PPV WEB h264-HEEL

WH : Source OF Wrestling Releases / Home OF WH Releases

Buy Premium or Renew From WH Links to Keep it Alive

About PH.M.H

[Wrestling Best Uploader]

View all posts by PH.M.H →

Leave a Reply

Your email address will not be published. Required fields are marked *