WWE Money in the Bank 2020 1080i -WH

WWE Money in the Bank 2020 1080i -WH [34 GB]

WWE Money in the Bank 2020 1080i -WH

General
Complete name : WWE.Money.in.the.Bank.2020.1080i-WH.mpg
Format : MPEG-PS
File size : 34.4 GiB
Duration : 2 h 14 min
Overall bit rate mode : Variable
Overall bit rate : 36.7 Mb/s

Video
Format : MPEG Video
Duration : 2 h 14 min
Bit rate mode : Variable
Bit rate : 35.6 Mb/s
Width : 1 920 pixels
Height : 1 080 pixels
Display aspect ratio : 16:9
Frame rate : 30.000 FPS
Color space : YUV
Chroma subsampling : 4:2:0
Bit depth : 8 bits
Stream size : 33.3 GiB (97%)

Audio
Format : MPEG Audio
Format version : Version 1
Format profile : Layer 2
Duration : 2 h 14 min
Bit rate mode : Constant
Bit rate : 384 kb/s
Channel(s) : 2 channels
Sampling rate : 48.0 kHz
Frame rate : 41.667 FPS (1152 SPF)
Compression mode : Lossy
Stream size : 368 MiB (1%)

WWE Money in the Bank 2020 1080i -WH
WWE Money in the Bank 2020 1080i -WH
WWE Money in the Bank 2020 1080i -WH
WWE Money in the Bank 2020 1080i -WH
WWE Money in the Bank 2020 1080i -WH
WWE Money in the Bank 2020 1080i -WH
WWE Money in the Bank 2020 1080i -WH
WWE Money in the Bank 2020 1080i -WH
WWE Money in the Bank 2020 1080i -WH

 102 total views,  2 views today

WWE Money in the Bank 2020 1080i -WH

Buy Premium or Extend From here to Support WH

About PH.M.H

[Wrestling Best Uploader]

View all posts by PH.M.H

One Comment on “WWE Money in the Bank 2020 1080i -WH”

Leave a Reply

Your email address will not be published. Required fields are marked *