WWE Clash Of Champions 2019 1080i HDTV FEED – WH [42 GB]

Spread the love

WWE Clash Of Champions 2019 1080i HDTV FEED – WH [42 GB]

dOWNLOAD WWE Clash Of Champions 2019 1080i HDTV

WWE Clash Of Champions 2019 1080i HDTV FEED – WH [42 GB]

General
Complete name : WWE Clash Of Champions 2019 1080i HDTV FEED – WH.ts
Format : MPEG-TS
File size : 42.1 GiB
Duration : 3 h 47 min
Overall bit rate mode : Variable
Overall bit rate : 26.5 Mb/s

Video
ID : 308 (0x134)
Menu ID : 1 (0x1)
Format : MPEG Video
Format version : Version 2
Format profile : [email protected]
Format settings : CustomMatrix / BVOP
Format settings, BVOP : Yes
Format settings, Matrix : Custom
Format settings, GOP : M=3, N=30
Format settings, picture st : Frame
Codec ID : 2
Duration : 3 h 47 min
Bit rate mode : Variable
Bit rate : 23.7 Mb/s
Maximum bit rate : 26.6 Mb/s
Width : 1 920 pixels
Height : 1 080 pixels
Display aspect ratio : 16:9
Frame rate : 29.970 (30000/1001) FPS
Color space : YUV
Chroma subsampling : 4:2:0
Bit depth : 8 bits
Scan type : Interlaced
Scan order : Top Field First
Compression mode : Lossy
Bits/(Pixel*Frame) : 0.381
Time code of first frame : 04:14:04;06
Time code source : Group of pictures header
GOP, Open/Closed : Open
Stream size : 37.6 GiB (89%)
Color primaries : BT.709
Transfer characteristics : BT.709
Matrix coefficients : BT.709

Audio #1
ID : 256 (0x100)
Menu ID : 1 (0x1)
Format : MPEG Audio
Format version : Version 1
Format profile : Layer 2
Format settings : Intensity Stereo + MS Stereo
Codec ID : 4
Duration : 3 h 47 min
Bit rate mode : Constant
Bit rate : 384 kb/s
Channel(s) : 2 channels
Sampling rate : 48.0 kHz
Frame rate : 41.667 FPS (1152 SPF)
Compression mode : Lossy
Delay relative to video : -197 ms
Stream size : 625 MiB (1%)
Language : English

Audio #2
ID : 257 (0x101)
Menu ID : 1 (0x1)
Format : MPEG Audio
Format version : Version 1
Format profile : Layer 2
Format settings : Intensity Stereo + MS Stereo
Codec ID : 4
Duration : 3 h 47 min
Bit rate mode : Constant
Bit rate : 384 kb/s
Channel(s) : 2 channels
Sampling rate : 48.0 kHz
Frame rate : 41.667 FPS (1152 SPF)
Compression mode : Lossy
Delay relative to video : -197 ms
Stream size : 625 MiB (1%)
Language : int

Audio #3
ID : 258 (0x102)
Menu ID : 1 (0x1)
Format : MPEG Audio
Format version : Version 1
Format profile : Layer 2
Format settings : Intensity Stereo + MS Stereo
Codec ID : 4
Duration : 3 h 47 min
Bit rate mode : Constant
Bit rate : 384 kb/s
Channel(s) : 2 channels
Sampling rate : 48.0 kHz
Frame rate : 41.667 FPS (1152 SPF)
Compression mode : Lossy
Delay relative to video : -197 ms
Stream size : 625 MiB (1%)
Language : man

Audio #4
ID : 259 (0x103)
Menu ID : 1 (0x1)
Format : MPEG Audio
Format version : Version 1
Format profile : Layer 2
Format settings : Intensity Stereo + MS Stereo
Codec ID : 4
Duration : 3 h 47 min
Bit rate mode : Constant
Bit rate : 384 kb/s
Channel(s) : 2 channels
Sampling rate : 48.0 kHz
Frame rate : 41.667 FPS (1152 SPF)
Compression mode : Lossy
Delay relative to video : -197 ms
Stream size : 625 MiB (1%)
Language : Hindi

WWE Clash Of Champions 2019 1080i HDTV FEED – WH [42 GB]
WWE Clash Of Champions 2019 1080i HDTV FEED – WH [42 GB]
WWE Clash Of Champions 2019 1080i HDTV FEED – WH [42 GB]
WWE Clash Of Champions 2019 1080i HDTV FEED – WH [42 GB]

PH.M.H NOTE :

  • THANKs TO OUR NEW CAPPER YAHiAa [ORIGINAL WH UPLOADER]
  • THIS FILE IS UNTOUCHED FEED SATELLITE Ts FILE
  • MULTI AUDIO FILE
  • THERE WAS EXTRA 15 MINTs ABOVE EVENT TIME
WWE Clash Of Champions 2019 1080i HDTV FEED – WH [42 GB]

ONE LINK DOWNLOAD

rapidgator

rapidgator.net/file/b66975b6f807452da3ec6bbb0eb04c68

1fichier / Uptobox

multiup.org/download/1b7314ae94a462051a8786279d05eb01

10 GB [5 PARTs] // INTERCHANGEABLE LINKs

4downfiles

4downfiles.org/nsdr8elbb90w
4downfiles.org/7uyjn67nesxx
4downfiles.org/7n5mpxdvqh7w
4downfiles.org/eluirl8w29si
4downfiles.org/m51gee8vn4tq

1fichier

1fichier.com/?p6ejfvs6l1z80ferr05w
1fichier.com/?ceclmd156ezj1ux1dyvl
1fichier.com/?6t8jk8vc1ax7hdxh4hl6
1fichier.com/?p378u97rm7uiyf1gzkdo
1fichier.com/?jeiq6mv1np2coiq7c9yc

earn4files

earn4files.com/ziph8isg8uz6
earn4files.com/dolrvp5yfp4k

earn4files.com/klqnaw451oa7

earn4files.com/9csm9dcessbp
earn4files.com/4zvz3k43bwez

fileup

fileup.cc/4h3jsngeubz4
fileup.cc/yxzpocs2exxz
fileup.cc/spmpvldzlb33
fileup.cc/vn7unbuzj6sh
fileup.cc/io3g0rhnah4z

nitroflare

nitroflare.com/view/F8CAEB8536F53AE
nitroflare.com/view/53264E533A6A32C
nitroflare.com/view/0DD90FD4E4FB3A5
nitroflare.com/view/F527860C7744FA6
nitroflare.com/view/EEA1244D92467BF

uploadgig

uploadgig.com/file/download/9377D53d5601Ecbb
uploadgig.com/file/download/F3c55288496bf912
uploadgig.com/file/download/1cd0e9506539b68c
uploadgig.com/file/download/47dbff477dE42C42
uploadgig.com/file/download/358fFc77a6a0dd1B

rapidgator

rapidgator.net/file/1011736c3d9981ccf5e41914b441af6e
rapidgator.net/file/c4d28217b4cdafb49faf975742fa2e84
rapidgator.net/file/b939396dc0f1542ef0b8ac3af190c9e9
rapidgator.net/file/b600892a1be6e8621982fba7232ca007
rapidgator.net/file/5fd0faedf0cb40333e40ff0f26368219

multiup [ 1fichier / Filesupload / Uptobox / Dl.free.fr ]

multiup.org/download/fc1f97c84b9d28d562be307551bf5a37
multiup.org/download/f487c695237e0c69e60d767f50ebc39f
multiup.org/download/942f8f12d4f9337c6dd79fa92ed1d202
multiup.org/download/f59b80f8c3e40d43e2423d09c2d2ba17
multiup.org/download/3678469ae3b1b8c96a90501c5591d14d

7 Comments on “WWE Clash Of Champions 2019 1080i HDTV FEED – WH [42 GB]”

  1. I’ll be waiting forma it. Thank you so much. Could you tell me how do you recorded this please? All the things that you used. And one last thing. Are you gonna upload Raw, SD Live and nos NXT un this same quality? Please say yes.

  2. I had not watch WWE for the last months. but I had read Brock is come back to Smackdown and will take the Title from Kofi. YEAH This will be good

    1. As much as I like Brock, but putting the title back on him makes no sense at all. After winning the title he’ll again start his light schedule making the title less credible again.
      I hope he doesn’t win this time. He’s beast incarnate but not the champion I’d look forward to.

  3. Sorry to say this, but Kofi is not the right champion. I remember Dean Ambrose he was not the Universal Champion and he was come from indy and he did a lot of deathmatches. Ambrose is stronger than the most other wrestlers from the WWE roster. It is unbelievable that someone like Kofi hold the title and Jon Moxley was never hold it. This is the show from WWE that I do not like. For me is it good when Brock take the Title from Kofi. And how often do we see Brock on smackdown ? Its time for Brock smackdown party. But for one fact, I am happy that John Cena was not come back, do not like him.

Leave a Reply

Your email address will not be published. Required fields are marked *