WWE Backlash 2020 PPV 1080i HDTV -WH

WWE Backlash 2020 PPV 1080i HDTV -WH [37 GB]

Very iMportant Note , PC go for restart in 1St Match OF the PPV
So last 5 minutes OF the 1st Match Missed [Affected on the Match] So consider it Missed ,
and PPV devided into [2 Parts]+ event Contain last 10 Minutes From Kick OFF

WWE Backlash 2020 PPV 1080i HDTV -WH

Video
Format : MPEG Video
Duration : Part 1 ~ 26 Minutes + Part 2 ~ 2 h 48 min
Bit rate mode : Variable
Bit rate : 27.3 Mb/s
Maximum bit rate : 27.7 Mb/s
Width : 1 920 pixels
Height : 1 080 pixels
Display aspect ratio : 16:9
Frame rate : 25.000 FPS
Color space : YUV
Chroma subsampling : 4:2:0
Bit depth : 8 bits
Scan type : Interlaced
Scan order : Top Field First
Compression mode : Lossy
Bits/(Pixel*Frame) : 0.528
Stream size : 32.2 GiB (97%)

Audio
Format : MPEG Audio
Format version : Version 1
Format profile : Layer 2
Duration : 2 h 48 min
Bit rate mode : Constant
Bit rate : 384 kb/s
Channel(s) : 2 channels
Sampling rate : 48.0 kHz
Frame rate : 41.667 FPS (1152 SPF)
Compression mode : Lossy
Stream size : 463 MiB (1%)

WWE Backlash 2020 PPV 1080i HDTV -WH
WWE Backlash 2020 PPV 1080i HDTV -WH
WWE Backlash 2020 PPV 1080i HDTV -WH
WWE Backlash 2020 PPV 1080i HDTV -WH
WWE Backlash 2020 PPV 1080i HDTV -WH
WWE Backlash 2020 PPV 1080i HDTV -WH
WWE Backlash 2020 PPV 1080i HDTV -WH

WWE.BackLash.2020.PPV.Part1.1080i.HDTV-WH
WWE.BackLash.2020.PPV.Part2.1080i.HDTV-WH

 645 total views,  2 views today

WWE Backlash 2020 PPV 1080i HDTV -WH

WH : Source OF Wrestling Releases / Home OF WH Releases

Buy Premium or Renew From WH Links to Keep it Alive

About PH.M.H

[Wrestling Best Uploader]

View all posts by PH.M.H →

2 Comments on “WWE Backlash 2020 PPV 1080i HDTV -WH”

  1. can you please have the grappling fights of ” Third Coast Grappling 4 ” in rockfile server ? please have it in low quality so it can be downloaded in free for rockfile servers , thanks

Leave a Reply

Your email address will not be published. Required fields are marked *