WWE NXT UK 2020 06 25 720p WEBRIP x264-WH

WWE NXT UK 2020 06 25 720p WEBRIP x264-WH

WWE NXT UK 2020 06 25 720p
WWE NXT UK 2020 06 25 720p WEBRIP x264-WH
File information

General
Complete name : WWE.NXT.UK.2020.06.25.720p.WEBRIP.x264-WH.mp4
Format : MPEG-4
Format profile : Base Media
Codec ID : isom (isom/iso2/mp41)
File size : 1.10 GiB
Duration : 1 h 0 min
Overall bit rate : 2 636 kb/s

Video
Format : MPEG-4 Visual
Codec ID : mp4v-20
Duration : 1 h 0 min
Bit rate mode : Constant
Bit rate : 2 499 kb/s
Width : 1 280 pixels
Height : 720 pixels
Display aspect ratio : 16:9
Frame rate mode : Constant
Frame rate : 29.970 (29970/1000) FPS
Color space : YUV
Chroma subsampling : 4:2:0
Bit depth : 8 bits
Scan type : Progressive
Compression mode : Lossy
Bits/(Pixel*Frame) : 0.090
Stream size : 1.05 GiB (95%)
Writing library : Lavc56.13.100

Audio
ID : 2
Format : AAC LC
Codec ID : mp4a-40-2
Duration : 1 h 0 min
Bit rate mode : Constant
Bit rate : 128 kb/s
Channel(s) : 2 channels
Channel layout : L R
Sampling rate : 44.1 kHz
Frame rate : 43.066 FPS (1024 SPF)
Compression mode : Lossy
Stream size : 54.9 MiB (5%)
Default : Yes
Alternate group : 1

Single download links

Rapidgator // Nitroflare // Uploadgig

References

Links: TVDBIMDBWH

 226 total views,  1 views today

WWE NXT UK 2020 06 25 720p WEBRIP x264-WH

WH : Source OF Wrestling Releases / Home OF WH Releases

Buy Premium or Renew From WH Links to Keep it Alive

About PH.M.H

[Wrestling Best Uploader]

View all posts by PH.M.H →

Leave a Reply

Your email address will not be published. Required fields are marked *