WWE NXT UK 2020 06 18 1080p

WWE NXT UK 2020 06 18 1080p

File WWE NXT UK
WWE NXT UK 2020 06 18 1080p

download WWE NXT UK 2020 06 18

File inFormation

General
Complete name : WWE.NXT.UK.2020.06.18.1080p.WEBRIP.x264-WH.mp4
Format : MPEG-4
Format profile : Base Media
Codec ID : isom (isom/iso2/avc1/mp41)
File size : 2.29 GiB
Duration : 46 min 7 s
Overall bit rate mode : Variable
Overall bit rate : 7 117 kb/s
Writing application : Lavf56.15.102

Video
ID : WWE NXT UK
Format : AVC
Codec ID : avc1
Duration : 46 min 7 s
Bit rate : 7 000 kb/s
Width : 1 920 pixels
Height : 1 080 pixels
Display aspect ratio : 16:9
Frame rate mode : Constant
Frame rate : 29.970 (29970/1000) FPS
Color space : YUV – 2020 06 18
Chroma subsampling : 4:2:0
Bit depth : 8 bits
Scan type : Progressive
Bits/(Pixel*Frame) : 0.113
Stream size : 2.24 GiB (98%)
Writing library : x264 core 142
box : WWE NXT UK

Audio
ID :2020 06 18
Format : AAC LC
Codec ID : mp4a-40-2
Duration : 46 min 7 s
Bit rate mode : Variable
Bit rate : 152 kb/s
Maximum bit rate : 192 kb/s
Channel(s) : 2 channels
Channel layout : L R
Sampling rate : 44.1 kHz
Frame rate : 43.066 FPS (1024 SPF)
Compression mode : Lossy
Stream size : 50.1 MiB (2%)
Language : English
Default : WWE NXT UK
Alternate group : 2020 06 18

Single download links

Rapidgator // Nitroflare // Uploadgig // RockFile

References

Home PgaePremium Site

 300 total views,  1 views today

WWE NXT UK 2020 06 18 1080p

WH : Source OF Wrestling Releases / Home OF WH Releases

Buy Premium or Renew From WH Links to Keep it Alive

About PH.M.H

[Wrestling Best Uploader]

View all posts by PH.M.H →

Leave a Reply

Your email address will not be published. Required fields are marked *